Обложка Аквамен / Aquaman (2018) [IMAX] BDRip 1080p [HEVC] 10 bit от Mr. FoxОбложка Богемская рапсодия / Bohemian Rhapsody (2018) BDRip 1080p [HEVC] 10 bit от M@kSIMusОбложка Человек-паук: Через вселенные / Spider-Man: Into the Spider-Verse (2018) [Локализованная версия] BDRip 1080p [HEVC] 10 bit от M@kSIMusОбложка Оно / It (2017) BDRip 1080p [HEVC] 10 bit от HANNIBALОбложка Сумерки: Антология / Twilight: Anthology (2008-2012) BDRip 1080p [HEVC] 10 bit от M@kSIMusОбложка Мир Юрского периода 2 / Jurassic World: Fallen Kingdom (2018) BDRip 1080p [HEVC] 10 bit от M@kSIMusОбложка И целого мира мало / The World Is Not Enough (1999) [50th Anniversary Edition] BDRip 1080p [HEVC] 10 bit от OldGamerОбложка Темный рыцарь: Возрождение легенды / The Dark Knight Rises (2012) [IMAX] BDRip 1080p [HEVC] 10 bit от M@kSIMusОбложка Варкрафт / Warcraft (2016) BDRip 1080p [HEVC] 10 bit от M@kSIMusОбложка Славные парни / Goodfellas (1990) [25th Anniversary] BDRip 1080p [HEVC] 10 bit от OldGamer

Авторизация

Смена пароля

captcha

Регистрация

captcha

Мини-чат

(19:54) Студень: Сучно тут стало, как на кладбище. Пойду наверно обратно на старый сайт
(00:25) АлександрПетров: Студень, На этом сайте банят не понятно за что, так что ничего не скачать. Да и фильмы тут один сплошной антиквариат.
(21:34) Студень: АлександрПетров, Саша, на этом сайте молчунов не банят. Так что не п...ди качай
(21:59) ko1ob: Студень, 5
(22:01) ko1ob: АлександрПетров, что мешает сделать рип новинки и залить сюда?
(00:40) Shanti: я уже говорил, что этот сайт загнётся. сайт классно сделан, но с таким подходом.. в плане развития, лучше уже вряд ли будет.
(05:07) gregor: Привет, поддайте газку http://hevc-club.video/video-876/
(08:23) TaiLung: Приветствую, скажите пожалуйста, HEVC HDRip`ы почему у нас не актуальны ? Почему то ни на одном российском трекере нету :) Я на американских трекерах видел фильмы размером 500~600 мб, а мультфильмы 400 мб и качество такое же как при h.264 - 745 мб, мне кажется для кого не важно супер качество и хочется иметь коллекцию фильмов, были бы рады такому компактному размеру 😃
(08:34) АлександрПетров: ko1ob, Мешает то, что я не рипер. Студень, а ты просто г....дон который со всеми кусается.
(08:52) OldGamer: TaiLung, если неважно качество и радует компактный размер - делайте себе такие рипы видеокартой, настроек минимум, скорость высокая :)
(08:56) OldGamer: TaiLung, видимо, спрос на такие рипы отсутствует на трекерах, поэтому их и нет
(08:57) OldGamer: TaiLung, ну или как вариант - прозондируйте почву. Скачать иностранный рип, наложить озвучку, выложить на руторе. Посмотреть, что из этого получится.
(09:15) OldGamer: TaiLung, "качество такое же" - сравнивали скриншоты?
  • 375509
  • atanaj
  • mogaleksej
  • sergey1060
Онлайн: 4
Отправка сообщений доступно только зарегистрированным/авторизованным пользователям.

🔍 Поиск

В пустыне смерти / Into the Badlands (2017) [2 сезон] BDRip 1080p [HEVC] 10 bit от OldGamer

HEVC
10 bit
Обложка В пустыне смерти / Into the Badlands (2017) [2 сезон] BDRip 1080p [HEVC] 10 bit от OldGamer Год: 2017
Страна: США
Студия: Millar Gough Ink, Big Kid Pictures, Diversion Pictures, Double Feature Films, AMC Networks
Жанр: Боевик, Драма, Приключения
Продолжительность: 07:10:56

Режиссер: Пако Кабесас, Тоа Фрейзер, Дэвид Добкин
В ролях: Дэниэл Ву, Орла Брэйди, Эмили Бичем, Арамис Найт, Элли Иоаннидес, Ник Фрост, Шерман Огастас, Сара Болгер, Оливер Старк, Мадлен Манток

Описание: Действия второго сезона сериала разворачиваются спустя шесть месяцев после событий финала первого сезона. Санни, ныне «Сборщик», оказывается шахтером, который рабским трудом добывает уголь на шахтах Бордо, вдалеке от Пустыни смерти. В шахтах Санни завязывает дружбу с контрабандистом Бэйджи и начинает планировать побег. В это же время ЭмКей проходит обучение под руководством Авы. Позже ЭмКей встречает Мастера, который обещает ему свободу, если мальчик научится управлять своими способностями и справится с обучением. В Пустыне смерти Райдер, который после смерти отца стал бароном, получил контроль над территориями Куинна, Якоби и Вдовы.

Серии
S02E001. Chapter VII- Tiger Pushes Mountain
S02E002. Chapter VIII- Force of Eagle's Claw
S02E003. Chapter IX- Red Sun, Silver Moon
S02E004. Chapter X- Palm of the Iron Fox
S02E005. Chapter XI- Monkey Leaps Through Mist
S02E006. Chapter XII- Leopard Stalks in Snow
S02E007. Chapter XIII- Black Heart, White Mountain
S02E008. Chapter XIV- Sting of the Scorpion's Tail
S02E009. Chapter XV- Nightingale Sings No More
S02E010. Chapter XVI- Wolf's Breath, Dragon Fire

7.4724219
8.1
36610


Формат: MKV
Видео: 1920x1080 (16:9), 4891-6839 кбит/сек, 0.138 бит/(Пиксели*Кадры), 23,976 (24000/1001) кадра/сек, HEVC (Main 10@L4.1@High) 10 бит
Аудио1: AC3, 6 ch, 384 Kbps -
Многоголосый (NewStudio)

Аудио2: AC3, 6 ch, 640 Kbps -
Оригинал

Субтитры: Отсутствуют

Как за пару секунд удалить ненужные аудиодорожки и субтитры (Внимание! После удаления вы не сможете поддержать раздачу)

Медиаинфо
x265 info: frame I: 266, Avg QP:16.10 kb/s: 22218.60
x265 info: frame P: 13893, Avg QP:17.62 kb/s: 14187.68
x265 info: frame B: 48454, Avg QP:19.53 kb/s: 4851.68
x265 info: Weighted P-Frames: Y:3.9% UV:3.0%
x265 info: Weighted B-Frames: Y:2.7% UV:1.9%
x265 info: consecutive B-frames: 7.3% 4.5% 23.1% 22.5% 11.0% 22.2% 4.1% 2.7% 1.0% 0.8% 0.3% 0.3% 0.1% 0.0% 0.0% 0.0% 0.1%
x265 info: encoded 62613 frames in 70215.82s (0.89 fps), 6997.00 kb/s, Avg QP:19.10
Формат : Matroska
Версия формата : Version 4
Размер файла : 2,44 Гбайт
Продолжительность : 43 м. 31 с.
Общий поток : 8023 Кбит/сек
Название фильма : Chapter VIII: Force of Eagle's Claw
Трек/Положение : 8/31
Описание : Regent Sunny, a highly-skilled fighter and the deadliest "Head Clipper" for Baron Quinn battles the Nomads to rescue a mysterious boy named M.K. who harbors a dark secret about his past. But when he brings him back to The Fort to train as a "Colt", a Clipper-in-training, things quickly get out of hand with another trainee. When first blood is drawn, M.K. loses control of himself as if something takes over his body, making the boy valuable to an opposing baron, The Widow. Meanwhile, Sunny discovers M.K.'s pendant has the same image as the one on his childhood compass of a place called Azra, the boy's home. In order to seek out the truth about his own past, Sunny wants to know more of this city beyond the Badlands, and must find a way out, especially now that his lover Veil is illegally pregnant with his child.
Программа кодирования : XviD4PSP 7.0.479 DAILY
Библиотека кодирования : Lavf57.71.100
Примечание : Rip by OldGamer
ErrorDetectionType : Per level 1
Attachments : poster.jpg
ACTORS : Daniel Wu, Orla Brady, Emily Beecham, Aramis Knight
ALBUM : Into the Badlands, Сезон 1-3
COUNTRY : USA
DATE : 2017-03-26
ENCODING_INFO : MATROSKA,WEBM > MKV / H264 > X265 CRF 19.3 Very Slow / AC3 > COPY Безопасное / DTS-HD MA > AC3 CBR 640kbps
EPISODE_SORT : 2
GENRE : Action, Adventure, Drama
HD_VIDEO : 1
IMDB_RATING : 8.3
ITUNEXTC : us-tv|TV-14|500|
Язык : und
MEDIA_TYPE : 10
SEASON_NUMBER : 2
SHOW : Into the Badlands
WRITER : Alfred Gough, Miles Millar

Видео
Идентификатор : 1
Формат : HEVC
Формат/Информация : High Efficiency Video Coding
Профиль формата : Main 10@L4.1@High
Идентификатор кодека : V_MPEGH/ISO/HEVC
Продолжительность : 43 м. 31 с.
Битрейт : 6839 Кбит/сек
Ширина : 1920 пикселей
Высота : 1080 пикселей
Соотношение сторон : 16:9
Режим частоты кадров : Постоянный
Частота кадров : 23,976 (24000/1001) кадра/сек
Цветовое пространство : YUV
Субдискретизация насыщенности : 4:2:0
Битовая глубина : 10 бит
Бит/(Пиксели*Кадры) : 0.138
Размер потока : 2,08 Гбайт (85%)
Заголовок : MPEG-4 AVC Video / 19489 kbps / 1080p / 23.976 fps / 16:9 / High Profile 4.1
Библиотека кодирования : x265 2.9+9-f74003e88622:[Windows][GCC 8.2.0][64 bit] 10bit
Настройки программы : cpuid=1111039 / frame-threads=13 / numa-pools=12 / wpp / no-pmode / no-pme / no-psnr / no-ssim / log-level=3 / input-csp=1 / input-res=1920x1080 / interlace=0 / total-frames=0 / level-idc=41 / high-tier=1 / uhd-bd=0 / ref=5 / allow-non-conformance / no-repeat-headers / annexb / no-aud / no-hrd / info / hash=0 / no-temporal-layers / open-gop / min-keyint=23 / keyint=240 / gop-lookahead=0 / bframes=16 / b-adapt=2 / b-pyramid / bframe-bias=0 / rc-lookahead=60 / lookahead-slices=6 / scenecut=40 / radl=0 / no-intra-refresh / ctu=64 / min-cu-size=8 / rect / amp / max-tu-size=32 / tu-inter-depth=4 / tu-intra-depth=4 / limit-tu=1 / rdoq-level=2 / dynamic-rd=0.00 / no-ssim-rd / signhide / no-tskip / nr-intra=0 / nr-inter=0 / no-constrained-intra / no-strong-intra-smoothing / max-merge=5 / limit-refs=2 / no-limit-modes / me=3 / subme=7 / merange=57 / temporal-mvp / weightp / weightb / no-analyze-src-pics / deblock=-3:-3 / no-sao / no-sao-non-deblock / rd=6 / no-early-skip / rskip / no-fast-intra / no-tskip-fast / no-cu-lossless / no-b-intra / no-splitrd-skip / rdpenalty=0 / psy-rd=2.00 / psy-rdoq=1.00 / no-rd-refine / no-lossless / cbqpoffs=0 / crqpoffs=0 / rc=crf / crf=19.3 / qcomp=0.72 / qpstep=4 / stats-write=0 / stats-read=0 / vbv-maxrate=50000 / vbv-bufsize=50000 / vbv-init=0.9 / crf-max=0.0 / crf-min=0.0 / ipratio=1.40 / pbratio=1.30 / aq-mode=2 / aq-strength=0.80 / no-cutree / zone-count=0 / no-strict-cbr / qg-size=32 / no-rc-grain / qpmax=69 / qpmin=0 / no-const-vbv / sar=1 / overscan=0 / videoformat=5 / range=0 / colorprim=2 / transfer=2 / colormatrix=2 / chromaloc=0 / display-window=0 / max-cll=0,0 / min-luma=0 / max-luma=1023 / log2-max-poc-lsb=8 / vui-timing-info / vui-hrd-info / slices=1 / no-opt-qp-pps / no-opt-ref-list-length-pps / no-multi-pass-opt-rps / scenecut-bias=0.00 / no-opt-cu-delta-qp / aq-motion / no-hdr / no-hdr-opt / no-dhdr10-opt / no-idr-recovery-sei / analysis-reuse-level=5 / scale-factor=0 / refine-intra=0 / refine-inter=0 / refine-mv=0 / no-limit-sao / ctu-info=0 / no-lowpass-dct / refine-mv-type=0 / copy-pic=1 / max-ausize-factor=1.0 / no-dynamic-refine / no-single-sei
Язык : English
Default : Да
Forced : Нет
Цветовой диапазон : Limited

Аудио #1
Идентификатор : 2
Формат : AC-3
Формат/Информация : Audio Coding 3
Коммерческое название : Dolby Digital
Идентификатор кодека : A_AC3
Продолжительность : 43 м. 31 с.
Вид битрейта : Постоянный
Битрейт : 384 Кбит/сек
Каналы : 6 каналов
Channel layout : L R C LFE Ls Rs
Частота : 48,0 КГц
Частота кадров : 31,250 кадров/сек (1536 SPF)
Битовая глубина : 16 бит
Метод сжатия : С потерями
Размер потока : 120 Мбайт (5%)
Язык : Russian
ServiceKind/String : Complete Main
Default : Да
Forced : Нет

Аудио #2
Идентификатор : 3
Формат : AC-3
Формат/Информация : Audio Coding 3
Коммерческое название : Dolby Digital
Идентификатор кодека : A_AC3
Продолжительность : 43 м. 31 с.
Вид битрейта : Постоянный
Битрейт : 640 Кбит/сек
Каналы : 6 каналов
Channel layout : L R C LFE Ls Rs
Частота : 48,0 КГц
Частота кадров : 31,250 кадров/сек (1536 SPF)
Битовая глубина : 16 бит
Метод сжатия : С потерями
Размер потока : 199 Мбайт (8%)
Заголовок : DTS-HD Master Audio / 5.1 / 48 kHz / 3682 kbps / 24-bit
Язык : English
ServiceKind/String : Complete Main
Default : Нет
Forced : Нет

Меню
00:00:00.000 : :Chapter 1
00:05:21.655 : :Chapter 2
00:14:48.513 : :Chapter 3
00:20:02.743 : :Chapter 4
00:26:52.027 : :Chapter 5
00:38:08.369 : :Chapter 6
00:42:27.044 : :Chapter 7
Cкриншот1 В пустыне смерти / Into the Badlands (2017) [2 сезон] BDRip 1080p [HEVC] 10 bit от OldGamer
Загружается...
Cкриншот2 В пустыне смерти / Into the Badlands (2017) [2 сезон] BDRip 1080p [HEVC] 10 bit от OldGamer
Загружается...
Cкриншот3 В пустыне смерти / Into the Badlands (2017) [2 сезон] BDRip 1080p [HEVC] 10 bit от OldGamer
Загружается...
Cкриншот4 В пустыне смерти / Into the Badlands (2017) [2 сезон] BDRip 1080p [HEVC] 10 bit от OldGamer
Загружается...
СэмплТоррентМагнетКнопки для благодарностей доступны только зарегистрированным/авторизованным пользователям!

Поблагодарили: 9
375509, brukvalub, garant3v, InSpector, MIGRANT, mvclub, sanyahustler, sixaxis, Херсонец
13.05.2019  16:53:38
0
46
0
0
20.75 ГБ

Добавление нового комментария

Добавление комментариев доступно только зарегистрированным/авторизованным пользователям.