Обложка Аквамен / Aquaman (2018) [IMAX] BDRip 1080p [HEVC] 10 bit от Mr. FoxОбложка Человек-паук: Через вселенные / Spider-Man: Into the Spider-Verse (2018) [Локализованная версия] BDRip 1080p [HEVC] 10 bit от M@kSIMusОбложка Клаустрофобы / Escape Room (2019) BDRip 1080p [HEVC] 10 bit от M@kSIMusОбложка Богемская рапсодия / Bohemian Rhapsody (2018) BDRip 1080p [HEVC] 10 bit от M@kSIMusОбложка Мир Дикого Запада / Westworld (2018) [2 сезон] BDRip 1080p [HEVC] 10 bit от OldGamerОбложка Оно / It (2017) BDRip 1080p [HEVC] 10 bit от HANNIBALОбложка Варкрафт / Warcraft (2016) BDRip 1080p [HEVC] 10 bit от M@kSIMusОбложка Rammstein - Paris (2017) BDRip 1080p [HEVC] 8 bit от CthulhuОбложка Мир Юрского периода 2 / Jurassic World: Fallen Kingdom (2018) BDRip 1080p [HEVC] 10 bit от M@kSIMusОбложка Трансформеры: Антология / Transformers: Anthology (2007-2017) [IMAX] BDRip 1080p [HEVC] 10 bit от M@kSIMus

Авторизация

Смена пароля

captcha

Регистрация

captcha

Мини-чат

(15:07) PRO-USTAS: всем привет мне нужен химик как с ним связаться ?
(15:28) Admin: В Пожеланиях переделал систему нумерации и добавил сортировку по номеру. Так легче отследить последние добавления.
(15:34) ADVOKAT69: PRO-USTAS, В контакте или одноклассниках!
(15:36) PRO-USTAS: скинь в личку
(17:36) PRO-USTAS: химик если ты тут бываешь напиши мне вк или в личку тут
(18:57) ADVOKAT69: PRO-USTAS, я Павлу в контакты написал!
(22:41) ADVOKAT69: PRO-USTAS, в личку скинул сылку!
(00:12) PRO-USTAS: большое спасибо
(09:09) ADVOKAT69: PRO-USTAS, ✋
(11:44) Manson_Fan: пора вводить систему штрафов))) по 300-500 скачиваний а через 5-7 дней на раздаче от силы 5-7 человек
(13:03) OldGamer: Заходите ежедневно :)
(13:51) Adagon: Сообщение удалено (Adagon)
Онлайн: 0
Отправка сообщений доступно только зарегистрированным/авторизованным пользователям.

🔍 Поиск

Хеллбой II: Золотая армия / Hellboy II: The Golden Army (2008) BDRip 1080p [HEVC] 10 bit от OldGamer

HEVC
10 bit
Обложка Хеллбой II: Золотая армия / Hellboy II: The Golden Army (2008) BDRip 1080p [HEVC] 10 bit от OldGamer Год: 2008
Страна: США, Германия
Студия: Universal Studios
Жанр: Ужасы, Фантастика, Фэнтези, Боевик
Продолжительность: 01:59:48

Режиссер: Гильермо дель Торо
В ролях: Рон Перлман, Сэльма Блэр, Даг Джонс, Джон Александр, Джеймс Додд, Сет МакФарлейн, Люк Госс, Анна Уолтон, Джеффри Тэмбор, Джон Хёрт

Описание: Древнее перемирие между человечеством и тайным миром было нарушено, на Земле вот-вот разверзнется ад. Безжалостный лидер, вхожий в оба мира, бросает вызов своей крови и пробуждает на свет неодолимую армию чудовищ. Настало время самому Хэллбою сразиться с беспощадным диктатором и его воинами. Вместе со своей пополняющей ряды командой «Бюро Паранормальных Исследований и Развития» он будет бороздить границы двух миров — нашего и скрытого, где самые невероятные существа обретают плоть. Хэллбою, порождённому обоими мирами, но не принадлежащему ни одному из них, предстоит выбирать между жизнью, которую он знает, и неизвестностью новой судьбы.


7.04558452
7
240942


Формат: MKV
Видео: 1920x1040 (1.85:1), 10,1 Мбит/сек, 23.976 (24000/1001) кадр/сек, HEVC (Main10@L.4.1@High) 10 бит
Аудио1: AC3, 6 ch, 640 Kbps - Русский, Дублированный (Лицензия)
Аудио2: AC3, 6 ch, 640 Kbps - Русский, Многоголосый (Студия "Кравец")
Аудио3: AC3, 6 ch, 640 Kbps - Русский, Авторский (Андрей Гаврилов)
Аудио4: AC3, 6 ch, 384 Kbps - Русский, Авторский (Юрий Живов)
Аудио5: AC3, 6 ch, 448 Kbps - Русский, Авторский (Владимир Королёв)
Аудио6: AC3, 6 ch, 384 Kbps - Украинский, Дублированный (Лицензия)
Аудио7: AC3, 6 ch, 640 Kbps - English, Original
Аудио8: AC3, 2 ch, 192 Kbps - English, Commentary Guillermo del Toro
Аудио9: AC3, 2 ch, 192 Kbps - English, Commentary filmmakers
Субтитры: Русские полные и форсированные (SRT), English full (SRT)

Как за пару секунд удалить ненужные аудиодорожки и субтитры (Внимание! После удаления вы не сможете поддержать раздачу)

Медиаинфо
x265 info: frame I: 721, Avg QP:17.94 kb/s: 23471.46
x265 info: frame P: 38966, Avg QP:19.21 kb/s: 16594.91
x265 info: frame B: 132482, Avg QP:21.49 kb/s: 8179.83
x265 info: Weighted P-Frames: Y:5.6% UV:4.9%
x265 info: Weighted B-Frames: Y:5.5% UV:4.4%
x265 info: consecutive B-frames: 6.0% 7.9% 9.1% 45.9% 10.3% 10.6% 3.3% 3.2% 1.7% 0.8% 0.2% 0.2% 0.1% 0.3% 0.1% 0.1% 0.1%
x265 info: encoded 172169 frames in 295690.99s (0.58 fps), 10148.40 kb/s, Avg QP:20.96
Формат : Matroska
Версия формата : Version 4
Размер файла : 12,0 Гбайт
Продолжительность : 2 ч. 4 м.
Общий поток : 13,8 Мбит/сек
Название фильма : Хеллбой II: Золотая армия
Дата кодирования : UTC 2019-05-11 13:06:23
Программа кодирования : mkvmerge v33.0.0 ('A Little Bit of Madness') 64-bit
Библиотека кодирования : libebml v1.3.7 + libmatroska v1.5.0 / Lavf57.71.100
Примечание : Rip by OldGamer
Attachments : poster.jpg
ACTORS : Рон Перлман, Сэльма Блэр,
COUNTRY : США
DATE : 2008
DIRECTOR : Гильермо дель Торо
ENCODING_INFO : MATROSKA,WEBM > MKV / H264 > X265 CRF 19.0 Very Slow / DTS > AC3 CBR 864kbps / DTS > AC3 CBR 864kbps / DTS > AC3 CBR 864kbps / AC3 > COPY Безопасное / AC3 > COPY Безопасное / AC3 > COPY Безопасное / DTS-HD MA > AC3 CBR 864kbps / AC3 > COPY Безопасное / AC3 > COPY Безопасное
GENRE : Ужасы, Фантастика, Фэнтези
HD_VIDEO : 1
Язык : und
MEDIA_TYPE : 9
ORIGINAL_TITLE : Hellboy II: The Golden Army

Видео
Идентификатор : 1
Формат : HEVC
Формат/Информация : High Efficiency Video Coding
Профиль формата : Main 10@L4.1@High
Идентификатор кодека : V_MPEGH/ISO/HEVC
Продолжительность : 1 ч. 59 м.
Битрейт : 10,1 Мбит/сек
Ширина : 1920 пикселей
Высота : 1040 пикселей
Соотношение сторон : 1,85:1
Режим частоты кадров : Постоянный
Частота кадров : 23,976 (24000/1001) кадра/сек
Цветовое пространство : YUV
Субдискретизация насыщенности : 4:2:0
Битовая глубина : 10 бит
Бит/(Пиксели*Кадры) : 0.212
Размер потока : 8,48 Гбайт (71%)
Библиотека кодирования : x265 2.9+9-f74003e88622:[Mac OS X][clang 10.0.0][64 bit] 10bit
Настройки программы : cpuid=1111039 / frame-threads=14 / wpp / no-pmode / no-pme / no-psnr / no-ssim / log-level=3 / input-csp=1 / input-res=1920x1040 / interlace=0 / total-frames=0 / level-idc=41 / high-tier=1 / uhd-bd=0 / ref=5 / allow-non-conformance / no-repeat-headers / annexb / no-aud / no-hrd / info / hash=0 / no-temporal-layers / open-gop / min-keyint=23 / keyint=240 / gop-lookahead=0 / bframes=16 / b-adapt=2 / b-pyramid / bframe-bias=0 / rc-lookahead=60 / lookahead-slices=6 / scenecut=40 / radl=0 / no-intra-refresh / ctu=64 / min-cu-size=8 / rect / amp / max-tu-size=32 / tu-inter-depth=4 / tu-intra-depth=4 / limit-tu=1 / rdoq-level=2 / dynamic-rd=0.00 / no-ssim-rd / signhide / no-tskip / nr-intra=0 / nr-inter=0 / no-constrained-intra / no-strong-intra-smoothing / max-merge=5 / limit-refs=2 / no-limit-modes / me=3 / subme=7 / merange=57 / temporal-mvp / weightp / weightb / no-analyze-src-pics / deblock=-3:-3 / no-sao / no-sao-non-deblock / rd=6 / no-early-skip / rskip / no-fast-intra / no-tskip-fast / no-cu-lossless / no-b-intra / no-splitrd-skip / rdpenalty=0 / psy-rd=2.00 / psy-rdoq=1.00 / no-rd-refine / no-lossless / cbqpoffs=0 / crqpoffs=0 / rc=crf / crf=19.0 / qcomp=0.65 / qpstep=4 / stats-write=0 / stats-read=0 / vbv-maxrate=50000 / vbv-bufsize=50000 / vbv-init=0.9 / crf-max=0.0 / crf-min=0.0 / ipratio=1.40 / pbratio=1.30 / aq-mode=2 / aq-strength=0.80 / no-cutree / zone-count=1 / zones: / start-frame=160980 / end-frame=178940 / qp=35 / no-strict-cbr / qg-size=32 / no-rc-grain / qpmax=69 / qpmin=0 / no-const-vbv / sar=1 / overscan=0 / videoformat=5 / range=0 / colorprim=1 / transfer=1 / colormatrix=1 / chromaloc=0 / display-window=0 / max-cll=0,0 / min-luma=0 / max-luma=1023 / log2-max-poc-lsb=8 / vui-timing-info / vui-hrd-info / slices=1 / no-opt-qp-pps / no-opt-ref-list-length-pps / no-multi-pass-opt-rps / scenecut-bias=0.00 / no-opt-cu-delta-qp / aq-motion / no-hdr / no-hdr-opt / no-dhdr10-opt / no-idr-recovery-sei / analysis-reuse-level=5 / scale-factor=0 / refine-intra=0 / refine-inter=0 / refine-mv=0 / no-limit-sao / ctu-info=0 / no-lowpass-dct / refine-mv-type=0 / copy-pic=1 / max-ausize-factor=1.0 / no-dynamic-refine / no-single-sei
Default : Да
Forced : Нет
Цветовой диапазон : Limited
Основные цвета : BT.709
Характеристики трансфера : BT.709
Коэффициенты матрицы : BT.709

Аудио #1
Идентификатор : 2
Формат : AC-3
Формат/Информация : Audio Coding 3
Коммерческое название : Dolby Digital
Идентификатор кодека : A_AC3
Продолжительность : 1 ч. 59 м.
Вид битрейта : Постоянный
Битрейт : 640 Кбит/сек
Каналы : 6 каналов
Channel layout : L R C LFE Ls Rs
Частота : 48,0 КГц
Частота кадров : 31,250 кадров/сек (1536 SPF)
Битовая глубина : 16 бит
Метод сжатия : С потерями
Размер потока : 548 Мбайт (4%)
Заголовок : Дублированный
Язык : Russian
ServiceKind/String : Complete Main
Default : Да
Forced : Нет

Аудио #2
Идентификатор : 3
Формат : AC-3
Формат/Информация : Audio Coding 3
Коммерческое название : Dolby Digital
Идентификатор кодека : A_AC3
Продолжительность : 1 ч. 59 м.
Вид битрейта : Постоянный
Битрейт : 640 Кбит/сек
Каналы : 6 каналов
Channel layout : L R C LFE Ls Rs
Частота : 48,0 КГц
Частота кадров : 31,250 кадров/сек (1536 SPF)
Битовая глубина : 16 бит
Метод сжатия : С потерями
Размер потока : 548 Мбайт (4%)
Заголовок : MVO (Кравец)
Язык : Russian
ServiceKind/String : Complete Main
Default : Нет
Forced : Нет

Аудио #3
Идентификатор : 4
Формат : AC-3
Формат/Информация : Audio Coding 3
Коммерческое название : Dolby Digital
Идентификатор кодека : A_AC3
Продолжительность : 1 ч. 59 м.
Вид битрейта : Постоянный
Битрейт : 640 Кбит/сек
Каналы : 6 каналов
Channel layout : L R C LFE Ls Rs
Частота : 48,0 КГц
Частота кадров : 31,250 кадров/сек (1536 SPF)
Битовая глубина : 16 бит
Метод сжатия : С потерями
Размер потока : 548 Мбайт (4%)
Заголовок : AVO (Андрей Гаврилов)
Язык : Russian
ServiceKind/String : Complete Main
Default : Нет
Forced : Нет

Аудио #4
Идентификатор : 5
Формат : AC-3
Формат/Информация : Audio Coding 3
Коммерческое название : Dolby Digital
Идентификатор кодека : A_AC3
Продолжительность : 1 ч. 59 м.
Вид битрейта : Постоянный
Битрейт : 384 Кбит/сек
Каналы : 6 каналов
Channel layout : L R C LFE Ls Rs
Частота : 48,0 КГц
Частота кадров : 31,250 кадров/сек (1536 SPF)
Битовая глубина : 16 бит
Метод сжатия : С потерями
Размер потока : 329 Мбайт (3%)
Заголовок : AVO (Юрий Живов)
Язык : Russian
ServiceKind/String : Complete Main
Default : Нет
Forced : Нет

Аудио #5
Идентификатор : 6
Формат : AC-3
Формат/Информация : Audio Coding 3
Коммерческое название : Dolby Digital
Идентификатор кодека : A_AC3
Продолжительность : 1 ч. 59 м.
Вид битрейта : Постоянный
Битрейт : 448 Кбит/сек
Каналы : 6 каналов
Channel layout : L R C LFE Ls Rs
Частота : 48,0 КГц
Частота кадров : 31,250 кадров/сек (1536 SPF)
Битовая глубина : 16 бит
Метод сжатия : С потерями
Размер потока : 384 Мбайт (3%)
Заголовок : AVO (Владимир Королёв)
Язык : Russian
ServiceKind/String : Complete Main
Default : Нет
Forced : Нет

Аудио #6
Идентификатор : 7
Формат : AC-3
Формат/Информация : Audio Coding 3
Коммерческое название : Dolby Digital
Идентификатор кодека : A_AC3
Продолжительность : 2 ч. 4 м.
Вид битрейта : Постоянный
Битрейт : 384 Кбит/сек
Каналы : 6 каналов
Channel layout : L R C LFE Ls Rs
Частота : 44,1 КГц
Частота кадров : 28,711 кадров/сек (1536 SPF)
Битовая глубина : 16 бит
Метод сжатия : С потерями
Размер потока : 341 Мбайт (3%)
Заголовок : Dub
Язык : Ukrainian
ServiceKind/String : Complete Main
Default : Нет
Forced : Нет

Аудио #7
Идентификатор : 8
Формат : AC-3
Формат/Информация : Audio Coding 3
Коммерческое название : Dolby Digital
Идентификатор кодека : A_AC3
Продолжительность : 1 ч. 59 м.
Вид битрейта : Постоянный
Битрейт : 640 Кбит/сек
Каналы : 6 каналов
Channel layout : L R C LFE Ls Rs
Частота : 48,0 КГц
Частота кадров : 31,250 кадров/сек (1536 SPF)
Битовая глубина : 16 бит
Метод сжатия : С потерями
Размер потока : 548 Мбайт (4%)
Заголовок : Original
Язык : English
ServiceKind/String : Complete Main
Default : Нет
Forced : Нет

Аудио #8
Идентификатор : 9
Формат : AC-3
Формат/Информация : Audio Coding 3
Коммерческое название : Dolby Digital
Идентификатор кодека : A_AC3
Продолжительность : 1 ч. 59 м.
Вид битрейта : Постоянный
Битрейт : 192 Кбит/сек
Каналы : 2 канала
Channel layout : L R
Частота : 48,0 КГц
Частота кадров : 31,250 кадров/сек (1536 SPF)
Битовая глубина : 16 бит
Метод сжатия : С потерями
Размер потока : 164 Мбайт (1%)
Заголовок : Commentary Guillermo del Toro
Язык : English
ServiceKind/String : Complete Main
Default : Нет
Forced : Нет

Аудио #9
Идентификатор : 10
Формат : AC-3
Формат/Информация : Audio Coding 3
Коммерческое название : Dolby Digital
Идентификатор кодека : A_AC3
Продолжительность : 1 ч. 59 м.
Вид битрейта : Постоянный
Битрейт : 192 Кбит/сек
Каналы : 2 канала
Channel layout : L R
Частота : 48,0 КГц
Частота кадров : 31,250 кадров/сек (1536 SPF)
Битовая глубина : 16 бит
Метод сжатия : С потерями
Размер потока : 164 Мбайт (1%)
Заголовок : Commentary filmmakers
Язык : English
ServiceKind/String : Complete Main
Default : Нет
Forced : Нет

Текст #1
Идентификатор : 11
Формат : UTF-8
Идентификатор кодека : S_TEXT/UTF8
Идентификатор кодека/Информация : UTF-8 Plain Text
Продолжительность : 12 м. 17 с.
Битрейт : 1 бит/сек
ElementCount : 3
Размер потока : 146 байт (0%)
Заголовок : Forced
Язык : Russian
Default : Да
Forced : Нет

Текст #2
Идентификатор : 12
Формат : UTF-8
Идентификатор кодека : S_TEXT/UTF8
Идентификатор кодека/Информация : UTF-8 Plain Text
Продолжительность : 1 ч. 52 м.
Битрейт : 75 бит/сек
ElementCount : 1178
Размер потока : 61,6 Кбайт (0%)
Заголовок : Full_Dub
Язык : Russian
Default : Нет
Forced : Нет

Текст #3
Идентификатор : 13
Формат : UTF-8
Идентификатор кодека : S_TEXT/UTF8
Идентификатор кодека/Информация : UTF-8 Plain Text
Продолжительность : 1 ч. 51 м.
Битрейт : 84 бит/сек
ElementCount : 1332
Размер потока : 69,1 Кбайт (0%)
Заголовок : Full
Язык : Russian
Default : Нет
Forced : Нет

Текст #4
Идентификатор : 14
Формат : UTF-8
Идентификатор кодека : S_TEXT/UTF8
Идентификатор кодека/Информация : UTF-8 Plain Text
Продолжительность : 1 ч. 50 м.
Битрейт : 50 бит/сек
ElementCount : 1247
Размер потока : 40,8 Кбайт (0%)
Язык : English
Default : Нет
Forced : Нет

Текст #5
Идентификатор : 15
Формат : UTF-8
Идентификатор кодека : S_TEXT/UTF8
Идентификатор кодека/Информация : UTF-8 Plain Text
Продолжительность : 1 ч. 59 м.
Битрейт : 152 бит/сек
ElementCount : 1596
Размер потока : 134 Кбайт (0%)
Заголовок : Commentary
Язык : Russian
Default : Нет
Forced : Нет

Меню
00:00:00.000 : :Ancient Truce
00:07:00.044 : :Fear the Dark
00:11:48.874 : :Top Secret
00:17:46.440 : :World, Here I Come
00:26:36.970 : :You Had No Right
00:29:57.921 : :The Good, the Bad & the Worst
00:34:45.875 : :A Nice Open Face
00:38:34.979 : :The True Nature of Things
00:44:28.374 : :The Troll Market
00:48:22.399 : :Delicate Situation
00:55:07.262 : :A Forest God
00:59:15.760 : :One of Us
01:05:38.434 : :Fatal Flaw
01:12:58.123 : :Fallen for the Princess
01:16:10.065 : :He's Here
01:21:59.915 : :Running Out of Time
01:26:19.507 : :Reason to Live
01:35:34.395 : :The Army Awakens
01:42:08.789 : :A Challenge
01:51:53.915 : :End Titles
Cкриншот1 Хеллбой II: Золотая армия / Hellboy II: The Golden Army (2008) BDRip 1080p [HEVC] 10 bit от OldGamer
Загружается...
Cкриншот2 Хеллбой II: Золотая армия / Hellboy II: The Golden Army (2008) BDRip 1080p [HEVC] 10 bit от OldGamer
Загружается...
Cкриншот3 Хеллбой II: Золотая армия / Hellboy II: The Golden Army (2008) BDRip 1080p [HEVC] 10 bit от OldGamer
Загружается...
Cкриншот4 Хеллбой II: Золотая армия / Hellboy II: The Golden Army (2008) BDRip 1080p [HEVC] 10 bit от OldGamer
Загружается...
СэмплТоррентМагнетКнопки для благодарностей доступны только зарегистрированным/авторизованным пользователям!

Раздача обновлена!
Устранён визуальный дефект кодирования (обнаружено на отметке времени 01:51:18), добавлены звуковые дорожки и дополнительные субтитры (в т.ч. на комментарии)

Поблагодарили: 30
375509, 7654321, alexyak, angel, brukvalub, cnn, crash, davidoff_k4, Diman, dimm, Flann, ivan_1965, ivs5, kapitan, ko1ob, LastSurviv0r, Makiavelli, MIGRANT, miirtoo, Nuclear70, prince46rus, RDigit, SaN161NeK, sanyahustler, sharkey71, sixaxis, SYNC80001, VardO, Vitoss6, Zulbay
12.05.2019  08:15:57
8
108
2
0
11.98 ГБ

Добавление нового комментария

Добавление комментариев доступно только зарегистрированным/авторизованным пользователям.
Аватар crash
  crash  24.04.2019  03:51:29
О наконец-то! бига спасибо! ждем первую часть! как-то искал в 265 кодеке, не нашел!
Аватар OldGamer
  OldGamer  23.04.2019  21:02:28
sahabandit писал(а):
СПАСИБО!!! А ПЕРВАЯ ЧАСТЬ БУДЕТ?
Второй комментарий снизу
Аватар sixaxis
  sixaxis  23.04.2019  09:22:10
Благодарю за 10 bit ... первую часть ждёмс тоже в таком формате с 10 bit
Аватар OldGamer
  OldGamer  22.04.2019  21:15:11
Zulbay писал(а):
А Спартаком сериалом не хотите заняться? 😇
Да есть же рип уже на ресурсе. Да и честно говоря, как то он мне не зашёл.
Аватар Zulbay
  Zulbay  22.04.2019  21:12:28
А Спартаком сериалом не хотите заняться? 😇
Аватар MIGRANT
  MIGRANT  22.04.2019  19:46:00
Наконец-то! Благодарю!!!
Аватар OldGamer
  OldGamer  22.04.2019  19:06:36
Priest2017 писал(а):
Вот это круть а первая часть будет?
Ну не такая уж и круть.
Первая часть будет, но не раньше, чем через неделю.
Аватар Priest2017
  Priest2017  22.04.2019  19:04:40
Вот это круть а первая часть будет?