Обложка Аквамен / Aquaman (2018) [IMAX] BDRip 1080p [HEVC] 10 bit от Mr. FoxОбложка Богемская рапсодия / Bohemian Rhapsody (2018) BDRip 1080p [HEVC] 10 bit от M@kSIMusОбложка Оно / It (2017) BDRip 1080p [HEVC] 10 bit от HANNIBALОбложка Человек-паук: Через вселенные / Spider-Man: Into the Spider-Verse (2018) [Локализованная версия] BDRip 1080p [HEVC] 10 bit от M@kSIMusОбложка Сумерки: Антология / Twilight: Anthology (2008-2012) BDRip 1080p [HEVC] 10 bit от M@kSIMusОбложка Мир Юрского периода 2 / Jurassic World: Fallen Kingdom (2018) BDRip 1080p [HEVC] 10 bit от M@kSIMusОбложка И целого мира мало / The World Is Not Enough (1999) [50th Anniversary Edition] BDRip 1080p [HEVC] 10 bit от OldGamerОбложка Темный рыцарь: Возрождение легенды / The Dark Knight Rises (2012) [IMAX] BDRip 1080p [HEVC] 10 bit от M@kSIMusОбложка Невидимая сторона / The Blind Side (2009) BDRip 1080p [HEVC] 10 bit от CthulhuОбложка Славные парни / Goodfellas (1990) [25th Anniversary] BDRip 1080p [HEVC] 10 bit от OldGamer

Авторизация

Смена пароля

captcha

Регистрация

captcha

Мини-чат

(19:54) Студень: Сучно тут стало, как на кладбище. Пойду наверно обратно на старый сайт
(00:25) АлександрПетров: Студень, На этом сайте банят не понятно за что, так что ничего не скачать. Да и фильмы тут один сплошной антиквариат.
(21:34) Студень: АлександрПетров, Саша, на этом сайте молчунов не банят. Так что не п...ди качай
(21:59) ko1ob: Студень, 5
(22:01) ko1ob: АлександрПетров, что мешает сделать рип новинки и залить сюда?
(00:40) Shanti: я уже говорил, что этот сайт загнётся. сайт классно сделан, но с таким подходом.. в плане развития, лучше уже вряд ли будет.
(05:07) gregor: Привет, поддайте газку http://hevc-club.video/video-876/
(08:23) TaiLung: Приветствую, скажите пожалуйста, HEVC HDRip`ы почему у нас не актуальны ? Почему то ни на одном российском трекере нету :) Я на американских трекерах видел фильмы размером 500~600 мб, а мультфильмы 400 мб и качество такое же как при h.264 - 745 мб, мне кажется для кого не важно супер качество и хочется иметь коллекцию фильмов, были бы рады такому компактному размеру 😃
(08:34) АлександрПетров: ko1ob, Мешает то, что я не рипер. Студень, а ты просто г....дон который со всеми кусается.
(08:52) OldGamer: TaiLung, если неважно качество и радует компактный размер - делайте себе такие рипы видеокартой, настроек минимум, скорость высокая :)
(08:56) OldGamer: TaiLung, видимо, спрос на такие рипы отсутствует на трекерах, поэтому их и нет
(08:57) OldGamer: TaiLung, ну или как вариант - прозондируйте почву. Скачать иностранный рип, наложить озвучку, выложить на руторе. Посмотреть, что из этого получится.
(09:15) OldGamer: TaiLung, "качество такое же" - сравнивали скриншоты?
  • 375509
  • dolbyk
  • Head1987
  • tigr11k
Онлайн: 4
Отправка сообщений доступно только зарегистрированным/авторизованным пользователям.

🔍 Поиск

Варкрафт / Warcraft (2016) BDRip 1080p [HEVC] 10 bit от M@kSIMus

HEVC
10 bit
Обложка Варкрафт / Warcraft (2016) BDRip 1080p [HEVC] 10 bit от M@kSIMus Год: 2016
Страна: Китай, Канада, Япония, США
Студия: Atlas Entertainment, Universal Pictures, Legendary Pictures
Жанр: Фэнтези, Боевик, Приключения
Продолжительность: 02:03:07

Режиссер: Дункан Джонс
В ролях: Трэвис Фиммел, Пола Пэттон, Бен Фостер, Доминик Купер, Тоби Кеббелл, Бен Шнетцер, Роберт Казински, Клэнси Браун, Дэниэл Ву, Рут Негга

Описание: Веками магия и неприступные стены защищали людей от любых напастей. Но древнее зло, побежденное и забытое тысячелетия назад, пробудилось. В самом сердце королевства открылся темный портал, и раса невиданных существ наводнила земли Азерота. Так начались события, призванные навсегда изменить судьбу этого мира.


7.595145833
6.8
227586


Формат: MKV
Видео: 1920x790, 8424 Kbps
Аудио1: AC3, 6 ch, 640 Kbps -
Дублированный (Лицензия)

Аудио2: AC3, 6 ch, 640 Kbps -
Оригинал

Субтитры: Русские (форсированные, полные), английские

Как за пару секунд удалить ненужные аудиодорожки и субтитры (Внимание! После удаления вы не сможете поддержать раздачу)

Медиаинфо
Общее
Уникальный идентификатор : 6884143803924334527321680178369540977 (0x52DD67E9AF942D5F76291E79A9C3371)
Полное имя : Варкрафт (2016) BDRip 1080p [HEVC] 10 bit.mkv
Формат : Matroska
Версия формата : Version 4
Размер файла : 8,35 Гбайт
Продолжительность : 2 ч. 3 м.
Общий поток : 9707 Кбит/сек
Название фильма : Варкрафт (2016) Encoded_by_M@kSIMus
Дата кодирования : UTC 2019-03-06 07:09:12
Программа кодирования : mkvmerge v28.0.0 ('Voice In My Head') 64-bit
Библиотека кодирования : libebml v1.3.6 + libmatroska v1.4.9
Обложка : Yes
Attachments : cover.jpg

Видео
Идентификатор : 1
Формат : HEVC
Формат/Информация : High Efficiency Video Coding
Профиль формата : Main 10@L4.1@High
Идентификатор кодека : V_MPEGH/ISO/HEVC
Продолжительность : 2 ч. 3 м.
Битрейт : 8424 Кбит/сек
Ширина : 1920 пикселей
Высота : 790 пикселей
Соотношение сторон : 2,40:1
Режим частоты кадров : Постоянный
Частота кадров : 23,976 (24000/1001) кадра/сек
Цветовое пространство : YUV
Субдискретизация насыщенности : 4:2:0
Битовая глубина : 10 бит
Бит/(Пиксели*Кадры) : 0.232
Размер потока : 7,24 Гбайт (87%)
Заголовок : Варкрафт (2016) Encoded_by_M@kSIMus
Библиотека кодирования : x265 2.9+9-f74003e88622:[Windows][GCC 8.2.0][64 bit] 10bit
Настройки программы : cpuid=1049583 / frame-threads=5 / numa-pools=4 / wpp / no-pmode / no-pme / no-psnr / no-ssim / log-level=3 / input-csp=1 / input-res=1920x790 / interlace=0 / total-frames=0 / level-idc=41 / high-tier=1 / uhd-bd=0 / ref=5 / allow-non-conformance / no-repeat-headers / annexb / no-aud / no-hrd / info / hash=0 / no-temporal-layers / open-gop / min-keyint=24 / keyint=240 / gop-lookahead=0 / bframes=16 / b-adapt=2 / b-pyramid / bframe-bias=0 / rc-lookahead=40 / lookahead-slices=5 / scenecut=40 / radl=0 / no-intra-refresh / ctu=64 / min-cu-size=8 / rect / no-amp / max-tu-size=32 / tu-inter-depth=1 / tu-intra-depth=1 / limit-tu=0 / rdoq-level=0 / dynamic-rd=0.00 / no-ssim-rd / signhide / no-tskip / nr-intra=0 / nr-inter=0 / no-constrained-intra / no-strong-intra-smoothing / max-merge=2 / limit-refs=3 / no-limit-modes / me=3 / subme=7 / merange=57 / temporal-mvp / weightp / weightb / no-analyze-src-pics / deblock=-3:-3 / no-sao / no-sao-non-deblock / rd=4 / no-early-skip / no-rskip / no-fast-intra / no-tskip-fast / no-cu-lossless / no-b-intra / no-splitrd-skip / rdpenalty=0 / psy-rd=4.00 / psy-rdoq=0.00 / no-rd-refine / no-lossless / cbqpoffs=0 / crqpoffs=0 / rc=crf / crf=18.0 / qcomp=0.60 / qpstep=4 / stats-write=0 / stats-read=0 / vbv-maxrate=50000 / vbv-bufsize=50000 / vbv-init=0.9 / crf-max=0.0 / crf-min=0.0 / ipratio=1.40 / pbratio=1.30 / aq-mode=3 / aq-strength=1.00 / cutree / zone-count=0 / no-strict-cbr / qg-size=32 / no-rc-grain / qpmax=69 / qpmin=0 / no-const-vbv / sar=1 / overscan=0 / videoformat=5 / range=0 / colorprim=1 / transfer=1 / colormatrix=1 / chromaloc=0 / display-window=0 / max-cll=0,0 / min-luma=0 / max-luma=1023 / log2-max-poc-lsb=8 / vui-timing-info / vui-hrd-info / slices=1 / no-opt-qp-pps / no-opt-ref-list-length-pps / no-multi-pass-opt-rps / scenecut-bias=0.05 / no-opt-cu-delta-qp / no-aq-motion / no-hdr / no-hdr-opt / no-dhdr10-opt / no-idr-recovery-sei / analysis-reuse-level=5 / scale-factor=0 / refine-intra=0 / refine-inter=0 / refine-mv=0 / no-limit-sao / ctu-info=0 / no-lowpass-dct / refine-mv-type=0 / copy-pic=1 / max-ausize-factor=1.0 / no-dynamic-refine / no-single-sei
Язык : English
Default : Да
Forced : Нет
Цветовой диапазон : Limited
Основные цвета : BT.709
Характеристики трансфера : BT.709
Коэффициенты матрицы : BT.709

Аудио #1
Идентификатор : 2
Формат : AC-3
Формат/Информация : Audio Coding 3
Коммерческое название : Dolby Digital
Идентификатор кодека : A_AC3
Продолжительность : 2 ч. 3 м.
Вид битрейта : Постоянный
Битрейт : 640 Кбит/сек
Каналы : 6 каналов
Channel layout : L R C LFE Ls Rs
Частота : 48,0 КГц
Частота кадров : 31,250 кадров/сек (1536 SPF)
Битовая глубина : 16 бит
Метод сжатия : С потерями
Размер потока : 564 Мбайт (7%)
Заголовок : Дубляж
Язык : Russian
Default : Да
Forced : Нет

Аудио #2
Идентификатор : 3
Формат : AC-3
Формат/Информация : Audio Coding 3
Коммерческое название : Dolby Digital
Идентификатор кодека : A_AC3
Продолжительность : 2 ч. 3 м.
Вид битрейта : Постоянный
Битрейт : 640 Кбит/сек
Каналы : 6 каналов
Channel layout : L R C LFE Ls Rs
Частота : 48,0 КГц
Частота кадров : 31,250 кадров/сек (1536 SPF)
Битовая глубина : 16 бит
Метод сжатия : С потерями
Размер потока : 564 Мбайт (7%)
Заголовок : Оригинал
Язык : English
Default : Нет
Forced : Нет

Текст #1
Идентификатор : 4
Формат : UTF-8
Идентификатор кодека : S_TEXT/UTF8
Идентификатор кодека/Информация : UTF-8 Plain Text
Продолжительность : 1 ч. 43 м.
Битрейт : 0 бит/сек
ElementCount : 9
Размер потока : 312 байт (0%)
Заголовок : Rus Forced
Язык : Russian
Default : Да
Forced : Да

Текст #2
Идентификатор : 5
Формат : UTF-8
Идентификатор кодека : S_TEXT/UTF8
Идентификатор кодека/Информация : UTF-8 Plain Text
Продолжительность : 1 ч. 53 м.
Битрейт : 57 бит/сек
ElementCount : 1053
Размер потока : 48,3 Кбайт (0%)
Заголовок : Rus Full
Язык : Russian
Default : Нет
Forced : Нет

Текст #3
Идентификатор : 6
Формат : UTF-8
Идентификатор кодека : S_TEXT/UTF8
Идентификатор кодека/Информация : UTF-8 Plain Text
Продолжительность : 1 ч. 52 м.
Битрейт : 36 бит/сек
ElementCount : 1234
Размер потока : 30,1 Кбайт (0%)
Заголовок : Eng Full
Язык : English
Default : Нет
Forced : Нет

Меню
00:00:00.000 : en:Chapter 1
00:09:27.000 : en:Chapter 2
00:15:51.000 : en:Chapter 3
00:22:38.000 : en:Chapter 4
00:29:18.000 : en:Chapter 5
00:38:44.000 : en:Chapter 6
00:46:45.000 : en:Chapter 7
00:53:04.000 : en:Chapter 8
00:56:19.000 : en:Chapter 9
01:02:45.000 : en:Chapter 10
01:07:50.000 : en:Chapter 11
01:12:26.000 : en:Chapter 12
01:17:14.000 : en:Chapter 13
01:22:47.000 : en:Chapter 14
01:26:34.000 : en:Chapter 15
01:32:31.000 : en:Chapter 16
01:40:23.000 : en:Chapter 17
01:47:38.000 : en:Chapter 18
01:51:13.000 : en:Chapter 19
01:53:59.000 : en:Chapter 20
Cкриншот1 Варкрафт / Warcraft (2016) BDRip 1080p [HEVC] 10 bit от M@kSIMus
Загружается...
Cкриншот2 Варкрафт / Warcraft (2016) BDRip 1080p [HEVC] 10 bit от M@kSIMus
Загружается...
Cкриншот3 Варкрафт / Warcraft (2016) BDRip 1080p [HEVC] 10 bit от M@kSIMus
Загружается...
Cкриншот4 Варкрафт / Warcraft (2016) BDRip 1080p [HEVC] 10 bit от M@kSIMus
Загружается...
СэмплТоррентМагнетКнопки для благодарностей доступны только зарегистрированным/авторизованным пользователям!

Поблагодарили: 23
375509, aacg, andrey9726, brukvalub, cujo, DonKihot, inoy, joker1001, Kaban, kapitan, Kilop77, m13x, Makc1mka, MIGRANT, misharev1970, mishonok, SoulBoy, Stigmatlazy, unnamed, VardO, vitgiber, Охренолог, Сухум
06.03.2019  18:12:21
0
5881
18
0
8.35 ГБ

Добавление нового комментария

Добавление комментариев доступно только зарегистрированным/авторизованным пользователям.