Обложка Аквамен / Aquaman (2018) [IMAX] BDRip 1080p [HEVC] 10 bit от Mr. FoxОбложка Человек-паук: Через вселенные / Spider-Man: Into the Spider-Verse (2018) [Локализованная версия] BDRip 1080p [HEVC] 10 bit от M@kSIMusОбложка Оно / It (2017) BDRip 1080p [HEVC] 10 bit от HANNIBALОбложка Богемская рапсодия / Bohemian Rhapsody (2018) BDRip 1080p [HEVC] 10 bit от M@kSIMusОбложка Сумерки: Антология / Twilight: Anthology (2008-2012) BDRip 1080p [HEVC] 10 bit от M@kSIMusОбложка И целого мира мало / The World Is Not Enough (1999) [50th Anniversary Edition] BDRip 1080p [HEVC] 10 bit от OldGamerОбложка Мир Юрского периода 2 / Jurassic World: Fallen Kingdom (2018) BDRip 1080p [HEVC] 10 bit от M@kSIMusОбложка Темный рыцарь: Возрождение легенды / The Dark Knight Rises (2012) [IMAX] BDRip 1080p [HEVC] 10 bit от M@kSIMusОбложка Игры разума / A Beautiful Mind (2001) BDRip 1080p [HEVC] 10 bit от CthulhuОбложка Варкрафт / Warcraft (2016) BDRip 1080p [HEVC] 10 bit от M@kSIMus

Авторизация

Смена пароля

captcha

Регистрация

captcha

Мини-чат

(19:54) Студень: Сучно тут стало, как на кладбище. Пойду наверно обратно на старый сайт
(00:25) АлександрПетров: Студень, На этом сайте банят не понятно за что, так что ничего не скачать. Да и фильмы тут один сплошной антиквариат.
(21:34) Студень: АлександрПетров, Саша, на этом сайте молчунов не банят. Так что не п...ди качай
(21:59) ko1ob: Студень, 5
(22:01) ko1ob: АлександрПетров, что мешает сделать рип новинки и залить сюда?
(00:40) Shanti: я уже говорил, что этот сайт загнётся. сайт классно сделан, но с таким подходом.. в плане развития, лучше уже вряд ли будет.
(05:07) gregor: Привет, поддайте газку http://hevc-club.video/video-876/
(08:23) TaiLung: Приветствую, скажите пожалуйста, HEVC HDRip`ы почему у нас не актуальны ? Почему то ни на одном российском трекере нету :) Я на американских трекерах видел фильмы размером 500~600 мб, а мультфильмы 400 мб и качество такое же как при h.264 - 745 мб, мне кажется для кого не важно супер качество и хочется иметь коллекцию фильмов, были бы рады такому компактному размеру 😃
(08:34) АлександрПетров: ko1ob, Мешает то, что я не рипер. Студень, а ты просто г....дон который со всеми кусается.
(08:52) OldGamer: TaiLung, если неважно качество и радует компактный размер - делайте себе такие рипы видеокартой, настроек минимум, скорость высокая :)
(08:56) OldGamer: TaiLung, видимо, спрос на такие рипы отсутствует на трекерах, поэтому их и нет
(08:57) OldGamer: TaiLung, ну или как вариант - прозондируйте почву. Скачать иностранный рип, наложить озвучку, выложить на руторе. Посмотреть, что из этого получится.
(09:15) OldGamer: TaiLung, "качество такое же" - сравнивали скриншоты?
Онлайн: 0
Отправка сообщений доступно только зарегистрированным/авторизованным пользователям.

🔍 Поиск

Майор (2013) BDRip 1080p [HEVC] 10 bit от M@kSIMus

HEVC
10 bit
Обложка Майор (2013) BDRip 1080p [HEVC] 10 bit от M@kSIMus Год: 2013
Страна: Россия
Студия: «Bazelevs Distribution», ТПО «Рок»
Жанр: Криминал, Драма
Продолжительность: 01:39:21

Режиссер: Юрий Быков
В ролях: Денис Шведов, Ирина Низина, Юрий Быков, Дмитрий Куличков, Кирилл Полухин, Борис Невзоров, Илья Исаев, Владислав Толдыков, Евгений Кочетков, Павел Басов

Описание: Разбуженный ранним звонком майор полиции Сергей Соболев мчится в роддом к лежащей на сохранении жене. На скользкой зимней дороге он насмерть сбивает семилетнего мальчика на глазах у несчастной матери. Майор понимает, что виноват, но велик соблазн оправдаться, используя служебное положение и связи. Сам того не желая, он запускает целую череду смертей. Чтобы ее остановить, Соболеву придется пойти против воспитавшей его системы.


7.46641045
7.3
2879


Формат: MKV
Видео: 1920x804, 5362 Kbps
Аудио: AC3, 6 ch, 640 Kbps -
Оригинал (Лицензия)

Субтитры: Английские

Медиаинфо
Общее
Уникальный идентификатор : 232343466713944623880756761265823009835 (0xAECBB957961EB5C8137D87A72447CC2B)
Полное имя : Майор (2013) BDRip 1080p [HEVC] 10 bit.mkv
Формат : Matroska
Версия формата : Version 4
Размер файла : 4,17 Гбайт
Продолжительность : 1 ч. 39 м.
Общий поток : 6004 Кбит/сек
Название фильма : Майор (2013) Encoded_by_M@kSIMus
Дата кодирования : UTC 2019-02-21 00:31:05
Программа кодирования : mkvmerge v30.1.0 ('Forever And More') 64-bit
Библиотека кодирования : libebml v1.3.6 + libmatroska v1.4.9
Обложка : Yes
Attachments : cover.jpg

Видео
Идентификатор : 1
Формат : HEVC
Формат/Информация : High Efficiency Video Coding
Профиль формата : Main 10@L4.1@High
Идентификатор кодека : V_MPEGH/ISO/HEVC
Продолжительность : 1 ч. 39 м.
Битрейт : 5362 Кбит/сек
Ширина : 1920 пикселей
Высота : 804 пикселя
Соотношение сторон : 2,40:1
Режим частоты кадров : Постоянный
Частота кадров : 24,000 кадра/сек
Цветовое пространство : YUV
Субдискретизация насыщенности : 4:2:0
Битовая глубина : 10 бит
Бит/(Пиксели*Кадры) : 0.145
Размер потока : 3,72 Гбайт (89%)
Заголовок : Майор (2013) Encoded_by_M@kSIMus
Библиотека кодирования : x265 2.9+9-f74003e88622:[Windows][GCC 8.2.0][64 bit] 10bit
Настройки программы : cpuid=1049583 / frame-threads=5 / numa-pools=4 / wpp / no-pmode / no-pme / no-psnr / no-ssim / log-level=3 / input-csp=1 / input-res=1920x804 / interlace=0 / total-frames=0 / level-idc=41 / high-tier=1 / uhd-bd=0 / ref=5 / allow-non-conformance / no-repeat-headers / annexb / no-aud / no-hrd / info / hash=0 / no-temporal-layers / open-gop / min-keyint=24 / keyint=240 / gop-lookahead=0 / bframes=8 / b-adapt=2 / b-pyramid / bframe-bias=0 / rc-lookahead=40 / lookahead-slices=5 / scenecut=40 / radl=0 / no-intra-refresh / ctu=64 / min-cu-size=8 / rect / no-amp / max-tu-size=32 / tu-inter-depth=1 / tu-intra-depth=1 / limit-tu=0 / rdoq-level=0 / dynamic-rd=0.00 / no-ssim-rd / signhide / no-tskip / nr-intra=0 / nr-inter=0 / no-constrained-intra / strong-intra-smoothing / max-merge=2 / limit-refs=3 / no-limit-modes / me=3 / subme=7 / merange=57 / temporal-mvp / weightp / no-weightb / no-analyze-src-pics / deblock=-3:-3 / no-sao / no-sao-non-deblock / rd=4 / no-early-skip / rskip / no-fast-intra / no-tskip-fast / no-cu-lossless / no-b-intra / no-splitrd-skip / rdpenalty=0 / psy-rd=2.00 / psy-rdoq=0.00 / no-rd-refine / no-lossless / cbqpoffs=0 / crqpoffs=0 / rc=crf / crf=16.5 / qcomp=0.60 / qpstep=4 / stats-write=0 / stats-read=0 / vbv-maxrate=50000 / vbv-bufsize=50000 / vbv-init=0.9 / crf-max=0.0 / crf-min=0.0 / ipratio=1.40 / pbratio=1.30 / aq-mode=1 / aq-strength=1.00 / cutree / zone-count=0 / no-strict-cbr / qg-size=32 / no-rc-grain / qpmax=69 / qpmin=0 / no-const-vbv / sar=1 / overscan=0 / videoformat=5 / range=0 / colorprim=1 / transfer=1 / colormatrix=1 / chromaloc=0 / display-window=0 / max-cll=0,0 / min-luma=0 / max-luma=1023 / log2-max-poc-lsb=8 / vui-timing-info / vui-hrd-info / slices=1 / no-opt-qp-pps / no-opt-ref-list-length-pps / no-multi-pass-opt-rps / scenecut-bias=0.05 / no-opt-cu-delta-qp / no-aq-motion / no-hdr / no-hdr-opt / no-dhdr10-opt / no-idr-recovery-sei / analysis-reuse-level=5 / scale-factor=0 / refine-intra=0 / refine-inter=0 / refine-mv=0 / no-limit-sao / ctu-info=0 / no-lowpass-dct / refine-mv-type=0 / copy-pic=1 / max-ausize-factor=1.0 / no-dynamic-refine / no-single-sei
Default : Да
Forced : Нет
Цветовой диапазон : Limited
Основные цвета : BT.709
Характеристики трансфера : BT.709
Коэффициенты матрицы : BT.709

Аудио
Идентификатор : 2
Формат : AC-3
Формат/Информация : Audio Coding 3
Коммерческое название : Dolby Digital
Идентификатор кодека : A_AC3
Продолжительность : 1 ч. 39 м.
Вид битрейта : Постоянный
Битрейт : 640 Кбит/сек
Каналы : 6 каналов
Channel layout : L R C LFE Ls Rs
Частота : 48,0 КГц
Частота кадров : 31,250 кадров/сек (1536 SPF)
Битовая глубина : 16 бит
Метод сжатия : С потерями
Размер потока : 455 Мбайт (11%)
Заголовок : Оригинал
Язык : Russian
Default : Да
Forced : Нет

Текст
Идентификатор : 3
Формат : UTF-8
Идентификатор кодека : S_TEXT/UTF8
Идентификатор кодека/Информация : UTF-8 Plain Text
Продолжительность : 1 ч. 38 м.
Битрейт : 30 бит/сек
ElementCount : 867
Размер потока : 22,3 Кбайт (0%)
Заголовок : Eng Full
Язык : English
Default : Нет
Forced : Нет

Меню
00:00:00.000 : en:Chapter 1
00:00:41.000 : en:Chapter 2
00:08:35.583 : en:Chapter 3
00:23:31.875 : en:Chapter 4
00:29:56.750 : en:Chapter 5
00:44:46.083 : en:Chapter 6
01:02:40.875 : en:Chapter 7
01:12:17.667 : en:Chapter 8
01:17:41.958 : en:Chapter 9
Cкриншот1 Майор (2013) BDRip 1080p [HEVC] 10 bit от M@kSIMus
Загружается...
Cкриншот2 Майор (2013) BDRip 1080p [HEVC] 10 bit от M@kSIMus
Загружается...
Cкриншот3 Майор (2013) BDRip 1080p [HEVC] 10 bit от M@kSIMus
Загружается...
Cкриншот4 Майор (2013) BDRip 1080p [HEVC] 10 bit от M@kSIMus
Загружается...

ТоррентМагнетКнопки для благодарностей доступны только зарегистрированным/авторизованным пользователям!

Поблагодарили: 11
375509, aacg, BarrelGun, Boogerman, brukvalub, Dark Victor, evv, Kaban, Prince, rumar, Shanti
21.02.2019  09:26:36
0
5047
4
0
4.17 ГБ

Добавление нового комментария

Добавление комментариев доступно только зарегистрированным/авторизованным пользователям.