Обложка Оно / It (2017) BDRip 1080p [HEVC] 10 bit от HANNIBALОбложка Робин Гуд / Robin Hood (2010) [Director's Cut] BDRip 1080p [HEVC] 10 bit от CthulhuОбложка Отступники / The Departed (2006) [FR Transfer] BDRip 1080p [HEVC] 10 bit от CthulhuОбложка Rammstein - Paris (2017) BDRip 1080p [HEVC] 8 bit от CthulhuОбложка Красная жара / Red Heat (1988) BDRip 1080p [HEVC] 10 bit от OldGamerОбложка Эквилибриум / Equilibrium (2002) [Open Matte] BDRip 1080p [HEVC] 10 bit от HANNIBALОбложка Веном / Venom (2018) BDRip 1080p [HEVC] 10 bit от M@kSIMusОбложка Знакомство с родителями / Meet the Parents (2000) BDRip 1080p [HEVC] 10 bit от M@kSIMusОбложка Исходный код / Source Code (2011) BDRip 1080p [HEVC] 10 bit от OldGamerОбложка Васаби / Wasabi (2001) BDRip 1080p [HEVC] 10 bit от Cthulhu

Авторизация

Смена пароля

captcha

Регистрация

captcha

🔍 Поиск

Другой мир: Антология / Underworld: Anthology (2003-2016) BDRip 1080р [HEVC] 10 bit от Cthulhu

HEVC
10 bit
Обложка Другой мир: Антология / Underworld: Anthology (2003-2016) BDRip 1080р [HEVC] 10 bit от Cthulhu Год: 2003-2016
Страна: США
Жанр: Ужасы, Фэнтези, Фантастика, Боевик

Описание: Столетиями властители царства мрака, вампиры и оборотни ведут беспощадную войну, невидимую человеческому взору. Бесстрашная Селина, воин-вампир, каждую ночь истребляет оборотней, влекомая неутолимой жаждой мести. Ее клан уверен, что вампирам удалось одержать верх над заклятыми врагами, но Селина подозревает, что у оборотней есть тайный план, сулящий гибель ее роду.

1. Другой мир / Underworld (2003) [Theatrical Cut] BDRip 1080p [HEVC] 10 bit от Cthulhu
HEVC
10 bit
Обложка Другой мир / Underworld (2003) [Theatrical Cut] BDRip 1080p [HEVC] 10 bit от Cthulhu Год: 2003
Страна: США, Германия, Великобритания, Венгрия
Студия: Lakeshore Entertainment, Laurinfilm Ltd., Subterranean Productions LLC, Subterranean Productions UK Ltd.
Жанр: Ужасы, Фантастика, Фэнтези, Боевик
Продолжительность: 02:01:13

Режиссер: Лен Уайзман
В ролях: Кейт Бекинсейл, Скотт Спидман, Майкл Шин, Шэйн Бролли, Билл Найи, Эрвин Ледер, София Майлс, Робби Ги, Вентворт Миллер, Кевин Гревье, Зита Горог, Дэннис Дж. Козелу

Описание: Столетиями властители царства мрака, вампиры и оборотни ведут беспощадную войну, невидимую человеческому взору. Бесстрашная Селина, воин-вампир, каждую ночь истребляет оборотней, влекомая неутолимой жаждой мести. Ее клан уверен, что вампирам удалось одержать верх над заклятыми врагами, но Селина подозревает, что у оборотней есть тайный план, сулящий гибель ее роду.


7.5483354
7
230276


Формат: MKV
Видео: 1916x816, 6426 Kbps
Аудио1: DTS, 6 ch, 768 Kbps - Русский, Дублированный (Лицензия)
Аудио2: AC3, 6 ch, 448 Kbps - Русский, Многоголосый
Аудио3: AC3, 6 ch, 448 Kbps - Оригинал
Субтитры: Русские

Медиаинфо
General
Unique ID : 211076768437226261431465574081755754914 (0x9ECBE829EDA265A095688204142A31A2)
Complete name : F:HEVCUnderworld AnthologyUnderworld (2003) [Theatrical Cut] BDRip 1080p [HEVC] 10Bit_Cthulhu.mkv
Format : Matroska
Format version : Version 4 / Version 2
File size : 6.85 GiB
Duration : 2 h 1 min
Overall bit rate : 8 093 kb/s
Movie name : Underworld (2003) [Extended Cut]_rip_by_Cthulhu
Encoded date : UTC 2018-08-03 19:20:21
Writing application : mkvmerge v18.0.0 ('Apricity') 64-bit
Writing library : libebml v1.3.5 + libmatroska v1.4.8
Cover : Yes
Attachments : cover1.jpg

Video
ID : 1
Format : HEVC
Format/Info : High Efficiency Video Coding
Format profile : Main 10@L4.1@High
Codec ID : V_MPEGH/ISO/HEVC
Duration : 2 h 1 min
Bit rate : 6 426 kb/s
Width : 1 916 pixels
Height : 816 pixels
Display aspect ratio : 2.35:1
Frame rate mode : Constant
Frame rate : 23.976 (24000/1001) FPS
Color space : YUV
Chroma subsampling : 4:2:0
Bit depth : 10 bits
Bits/(Pixel*Frame) : 0.171
Stream size : 5.44 GiB (79%)
Writing library : x265 2.8+49-5d34bbf671f7:[Windows][GCC 8.1.1][64 bit] 10bit
Encoding settings : cpuid=1049583 / frame-threads=4 / numa-pools=4 / wpp / no-pmode / no-pme / no-psnr / no-ssim / log-level=2 / input-csp=1 / input-res=1916x816 / interlace=0 / total-frames=174384 / level-idc=41 / high-tier=1 / uhd-bd=0 / ref=5 / no-allow-non-conformance / no-repeat-headers / annexb / no-aud / no-hrd / info / hash=0 / no-temporal-layers / open-gop / min-keyint=23 / keyint=240 / gop-lookahead=0 / bframes=8 / b-adapt=2 / b-pyramid / bframe-bias=0 / rc-lookahead=40 / lookahead-slices=4 / scenecut=40 / radl=0 / no-intra-refresh / ctu=64 / min-cu-size=8 / rect / amp / max-tu-size=32 / tu-inter-depth=3 / tu-intra-depth=3 / limit-tu=4 / rdoq-level=1 / dynamic-rd=0.00 / no-ssim-rd / signhide / no-tskip / nr-intra=0 / nr-inter=0 / no-constrained-intra / no-strong-intra-smoothing / max-merge=3 / limit-refs=2 / limit-modes / me=3 / subme=7 / merange=57 / temporal-mvp / weightp / weightb / no-analyze-src-pics / deblock=-3:-3 / no-sao / no-sao-non-deblock / rd=4 / no-early-skip / rskip / no-fast-intra / no-tskip-fast / no-cu-lossless / no-b-intra / no-splitrd-skip / rdpenalty=0 / psy-rd=2.00 / psy-rdoq=1.00 / no-rd-refine / no-lossless / cbqpoffs=0 / crqpoffs=0 / rc=crf / crf=18.0 / qcomp=0.60 / qpstep=4 / stats-write=0 / stats-read=0 / vbv-maxrate=50000 / vbv-bufsize=50000 / vbv-init=0.9 / crf-max=0.0 / crf-min=0.0 / ipratio=1.40 / pbratio=1.30 / aq-mode=1 / aq-strength=1.00 / cutree / zone-count=0 / no-strict-cbr / qg-size=32 / no-rc-grain / qpmax=69 / qpmin=0 / no-const-vbv / sar=1 / overscan=0 / videoformat=5 / range=0 / colorprim=1 / transfer=1 / colormatrix=1 / chromaloc=0 / display-window=0 / max-cll=0,0 / min-luma=0 / max-luma=1023 / log2-max-poc-lsb=8 / vui-timing-info / vui-hrd-info / slices=1 / no-opt-qp-pps / no-opt-ref-list-length-pps / no-multi-pass-opt-rps / scenecut-bias=0.05 / no-opt-cu-delta-qp / no-aq-motion / no-hdr / no-hdr-opt / no-dhdr10-opt / no-idr-recovery-sei / analysis-reuse-level=5 / scale-factor=0 / refine-intra=0 / refine-inter=0 / refine-mv=0 / no-limit-sao / ctu-info=0 / no-lowpass-dct / refine-mv-type=0 / copy-pic=1 / max-ausize-factor=1.0 / no-dynamic-refine / no-single-sei
Language : English
Default : Yes
Forced : No
Color range : Limited
Color primaries : BT.709
Transfer characteristics : BT.709
Matrix coefficients : BT.709

Audio #1
ID : 2
Format : DTS
Format/Info : Digital Theater Systems
Codec ID : A_DTS
Duration : 2 h 1 min
Bit rate mode : Constant
Bit rate : 768 kb/s
Channel(s) : 6 channels
Channel positions : Front: L C R, Side: L R, LFE
Sampling rate : 48.0 kHz
Frame rate : 93.750 FPS (512 SPF)
Bit depth : 16 bits
Compression mode : Lossy
Stream size : 666 MiB (9%)
Title : RUS DUB
Language : Russian
Default : Yes
Forced : No

Audio #2
ID : 3
Format : AC-3
Format/Info : Audio Coding 3
Codec ID : A_AC3
Duration : 2 h 1 min
Bit rate mode : Constant
Bit rate : 448 kb/s
Channel(s) : 6 channels
Channel positions : Front: L C R, Side: L R, LFE
Sampling rate : 48.0 kHz
Frame rate : 31.250 FPS (1536 SPF)
Bit depth : 16 bits
Compression mode : Lossy
Stream size : 388 MiB (6%)
Title : RUS MVO
Language : Russian
Service kind : Complete Main
Default : No
Forced : No

Audio #3
ID : 4
Format : AC-3
Format/Info : Audio Coding 3
Codec ID : A_AC3
Duration : 2 h 1 min
Bit rate mode : Constant
Bit rate : 448 kb/s
Channel(s) : 6 channels
Channel positions : Front: L C R, Side: L R, LFE
Sampling rate : 48.0 kHz
Frame rate : 31.250 FPS (1536 SPF)
Bit depth : 16 bits
Compression mode : Lossy
Stream size : 388 MiB (6%)
Title : ORIGINAL
Language : English
Service kind : Complete Main
Default : No
Forced : No

Text
ID : 5
Format : UTF-8
Codec ID : S_TEXT/UTF8
Codec ID/Info : UTF-8 Plain Text
Duration : 1 h 54 min
Bit rate : 41 b/s
Count of elements : 722
Stream size : 34.7 KiB (0%)
Language : Russian
Default : Yes
Forced : No

Menu
00:00:00.000 : en:Chapter 1
00:00:50.967 : en:Chapter 2
00:02:45.164 : en:Chapter 3
00:14:27.491 : en:Chapter 4
00:24:32.471 : en:Chapter 5
00:29:53.500 : en:Chapter 6
00:34:23.603 : en:Chapter 7
00:36:24.015 : en:Chapter 8
00:39:41.212 : en:Chapter 9
00:41:06.172 : en:Chapter 10
00:43:23.601 : en:Chapter 11
00:45:45.701 : en:Chapter 12
00:54:21.925 : en:Chapter 13
00:57:31.906 : en:Chapter 14
01:02:41.048 : en:Chapter 15
01:07:44.393 : en:Chapter 16
01:09:35.129 : en:Chapter 17
01:11:44.842 : en:Chapter 18
01:14:54.990 : en:Chapter 19
01:16:59.990 : en:Chapter 20
01:25:11.064 : en:Chapter 21
01:29:10.261 : en:Chapter 22
01:33:04.078 : en:Chapter 23
01:37:56.579 : en:Chapter 24
01:40:12.756 : en:Chapter 25
01:46:30.634 : en:Chapter 26
01:49:29.062 : en:Chapter 27
01:52:30.118 : en:Chapter 28
02:01:11.347 : en:Chapter 29
Cкриншот1 Другой мир / Underworld (2003) [Theatrical Cut] BDRip 1080p [HEVC] 10 bit от Cthulhu
Загружается...
Cкриншот2 Другой мир / Underworld (2003) [Theatrical Cut] BDRip 1080p [HEVC] 10 bit от Cthulhu
Загружается...
Cкриншот3 Другой мир / Underworld (2003) [Theatrical Cut] BDRip 1080p [HEVC] 10 bit от Cthulhu
Загружается...
Cкриншот4 Другой мир / Underworld (2003) [Theatrical Cut] BDRip 1080p [HEVC] 10 bit от Cthulhu
Загружается...
Сэмпл
2. Другой мир / Underworld (2003) [Extended Cut] BDRip 1080p [HEVC] 10 bit от Cthulhu
HEVC
10 bit
Обложка Другой мир / Underworld (2003) [Extended Cut] BDRip 1080p [HEVC] 10 bit от Cthulhu Год: 2003
Страна: США, Германия, Великобритания, Венгрия
Студия: Lakeshore Entertainment, Laurinfilm Ltd., Subterranean Productions LLC, Subterranean Productions UK Ltd.
Жанр: Ужасы, Фантастика, Фэнтези, Боевик
Продолжительность: 02:13:37

Режиссер: Лен Уайзман
В ролях: Кейт Бекинсейл, Скотт Спидман, Майкл Шин, Шэйн Бролли, Билл Найи, Эрвин Ледер, София Майлс, Робби Ги, Вентворт Миллер, Кевин Гревье, Зита Горог, Дэннис Дж. Козелу

Описание: Столетиями властители царства мрака, вампиры и оборотни ведут беспощадную войну, невидимую человеческому взору. Бесстрашная Селина, воин-вампир, каждую ночь истребляет оборотней, влекомая неутолимой жаждой мести. Ее клан уверен, что вампирам удалось одержать верх над заклятыми врагами, но Селина подозревает, что у оборотней есть тайный план, сулящий гибель ее роду.


7.5483354
7
230276


Формат: MKV
Видео: 1920x808, 5541 Kbps
Аудио1: AC3, 6 ch, 448 Kbps - Русский, Дублированный + вставки многоголосого в расширенных сценах
Аудио2: AC3, 6 ch, 640 Kbps - Русский, Многоголосый (Киномания)
Аудио3: AC3, 6 ch, 640 Kbps - Русский, Одноголосый (Гаврилов)
Аудио4: AC3, 6 ch, 640 Kbps - Оригинал
Субтитры: Русские, английские

Медиаинфо
General
Unique ID : 211923139130876862248404725950142463992 (0x9F6EE975F3F73B5D8DE0DFE8BD3FBFF8)
Complete name : F:HEVCUnderworld AnthologyUnderworld (2003) [Extended Cut] BDRip 1080p [HEVC] 10Bit_Cthulhu.mkv
Format : Matroska
Format version : Version 4 / Version 2
File size : 7.38 GiB
Duration : 2 h 13 min
Overall bit rate : 7 912 kb/s
Movie name : Underworld [Extended Cut] (2003)_rip_by_Cthulhu
Encoded date : UTC 2018-08-03 17:00:11
Writing application : mkvmerge v18.0.0 ('Apricity') 64-bit
Writing library : libebml v1.3.5 + libmatroska v1.4.8
Cover : Yes
Attachments : cover1E.jpg

Video
ID : 1
Format : HEVC
Format/Info : High Efficiency Video Coding
Format profile : Main 10@L4.1@High
Codec ID : V_MPEGH/ISO/HEVC
Duration : 2 h 13 min
Bit rate : 5 541 kb/s
Width : 1 920 pixels
Height : 808 pixels
Display aspect ratio : 2.40:1
Frame rate mode : Constant
Frame rate : 23.976 (24000/1001) FPS
Color space : YUV
Chroma subsampling : 4:2:0
Bit depth : 10 bits
Bits/(Pixel*Frame) : 0.149
Stream size : 5.17 GiB (70%)
Writing library : x265 2.7+340-aa9102400f24:[Windows][GCC 8.0.1][64 bit] 10bit
Encoding settings : cpuid=1049583 / frame-threads=4 / numa-pools=4 / wpp / no-pmode / no-pme / no-psnr / no-ssim / log-level=2 / input-csp=1 / input-res=1920x808 / interlace=0 / total-frames=192216 / level-idc=41 / high-tier=1 / uhd-bd=0 / ref=5 / no-allow-non-conformance / no-repeat-headers / annexb / no-aud / no-hrd / info / hash=0 / no-temporal-layers / open-gop / min-keyint=23 / keyint=240 / gop-lookahead=0 / bframes=8 / b-adapt=2 / b-pyramid / bframe-bias=0 / rc-lookahead=40 / lookahead-slices=4 / scenecut=40 / radl=0 / no-intra-refresh / ctu=64 / min-cu-size=8 / rect / amp / max-tu-size=32 / tu-inter-depth=3 / tu-intra-depth=3 / limit-tu=4 / rdoq-level=1 / dynamic-rd=0.00 / no-ssim-rd / signhide / no-tskip / nr-intra=0 / nr-inter=0 / no-constrained-intra / no-strong-intra-smoothing / max-merge=3 / limit-refs=2 / limit-modes / me=3 / subme=7 / merange=57 / temporal-mvp / weightp / weightb / no-analyze-src-pics / deblock=-3:-3 / no-sao / no-sao-non-deblock / rd=4 / no-early-skip / rskip / no-fast-intra / no-tskip-fast / no-cu-lossless / no-b-intra / no-splitrd-skip / rdpenalty=0 / psy-rd=2.00 / psy-rdoq=1.00 / no-rd-refine / no-lossless / cbqpoffs=0 / crqpoffs=0 / rc=crf / crf=18.0 / qcomp=0.60 / qpstep=4 / stats-write=0 / stats-read=0 / vbv-maxrate=50000 / vbv-bufsize=50000 / vbv-init=0.9 / crf-max=0.0 / crf-min=0.0 / ipratio=1.40 / pbratio=1.30 / aq-mode=1 / aq-strength=1.00 / cutree / zone-count=0 / no-strict-cbr / qg-size=32 / no-rc-grain / qpmax=69 / qpmin=0 / no-const-vbv / sar=1 / overscan=0 / videoformat=5 / range=0 / colorprim=1 / transfer=1 / colormatrix=1 / chromaloc=0 / display-window=0 / max-cll=0,0 / min-luma=0 / max-luma=1023 / log2-max-poc-lsb=8 / vui-timing-info / vui-hrd-info / slices=1 / no-opt-qp-pps / no-opt-ref-list-length-pps / no-multi-pass-opt-rps / scenecut-bias=0.05 / no-opt-cu-delta-qp / no-aq-motion / no-hdr / no-hdr-opt / no-dhdr10-opt / no-idr-recovery-sei / analysis-reuse-level=5 / scale-factor=0 / refine-intra=0 / refine-inter=0 / refine-mv=0 / no-limit-sao / ctu-info=0 / no-lowpass-dct / refine-mv-type=0 / copy-pic=1 / max-ausize-factor=1.0 / no-dynamic-refine / no-single-sei
Language : English
Default : Yes
Forced : No
Color range : Limited
Color primaries : BT.709
Transfer characteristics : BT.709
Matrix coefficients : BT.709

Audio #1
ID : 2
Format : AC-3
Format/Info : Audio Coding 3
Codec ID : A_AC3
Duration : 2 h 13 min
Bit rate mode : Constant
Bit rate : 448 kb/s
Channel(s) : 6 channels
Channel positions : Front: L C R, Side: L R, LFE
Sampling rate : 48.0 kHz
Frame rate : 31.250 FPS (1536 SPF)
Bit depth : 16 bits
Compression mode : Lossy
Stream size : 428 MiB (6%)
Title : Дубляж + MVO Киномания
Language : Russian
Service kind : Complete Main
Default : Yes
Forced : No

Audio #2
ID : 3
Format : AC-3
Format/Info : Audio Coding 3
Codec ID : A_AC3
Duration : 2 h 13 min
Bit rate mode : Constant
Bit rate : 640 kb/s
Channel(s) : 6 channels
Channel positions : Front: L C R, Side: L R, LFE
Sampling rate : 48.0 kHz
Frame rate : 31.250 FPS (1536 SPF)
Bit depth : 16 bits
Compression mode : Lossy
Stream size : 612 MiB (8%)
Title : MVO Киномания
Language : Russian
Service kind : Complete Main
Default : No
Forced : No

Audio #3
ID : 4
Format : AC-3
Format/Info : Audio Coding 3
Codec ID : A_AC3
Duration : 2 h 13 min
Bit rate mode : Constant
Bit rate : 640 kb/s
Channel(s) : 6 channels
Channel positions : Front: L C R, Side: L R, LFE
Sampling rate : 48.0 kHz
Frame rate : 31.250 FPS (1536 SPF)
Bit depth : 16 bits
Compression mode : Lossy
Stream size : 612 MiB (8%)
Title : AVO Гаврилов
Language : Russian
Service kind : Complete Main
Default : No
Forced : No

Audio #4
ID : 5
Format : AC-3
Format/Info : Audio Coding 3
Codec ID : A_AC3
Duration : 2 h 13 min
Bit rate mode : Constant
Bit rate : 640 kb/s
Channel(s) : 6 channels
Channel positions : Front: L C R, Side: L R, LFE
Sampling rate : 48.0 kHz
Frame rate : 31.250 FPS (1536 SPF)
Bit depth : 16 bits
Compression mode : Lossy
Stream size : 611 MiB (8%)
Language : English
Service kind : Complete Main
Default : No
Forced : No

Text #1
ID : 6
Format : UTF-8
Codec ID : S_TEXT/UTF8
Codec ID/Info : UTF-8 Plain Text
Duration : 2 h 4 min
Bit rate : 47 b/s
Count of elements : 710
Stream size : 43.0 KiB (0%)
Language : Russian
Default : No
Forced : No

Text #2
ID : 7
Format : UTF-8
Codec ID : S_TEXT/UTF8
Codec ID/Info : UTF-8 Plain Text
Duration : 2 h 4 min
Bit rate : 28 b/s
Count of elements : 710
Stream size : 26.1 KiB (0%)
Language : English
Default : No
Forced : No

Menu
00:00:00.000 : en:
00:02:45.248 : en:
00:14:28.284 : en:
00:25:22.479 : en:
00:30:43.842 : en:
00:37:14.732 : en:
00:44:42.930 : en:
00:56:17.957 : en:
01:00:28.875 : en:
01:09:08.519 : en:
01:16:27.124 : en:
01:25:01.262 : en:
01:34:27.453 : en:
01:42:50.873 : en:
01:49:50.333 : en:
01:59:07.723 : en
Cкриншот1 Другой мир / Underworld (2003) [Extended Cut] BDRip 1080p [HEVC] 10 bit от Cthulhu
Загружается...
Cкриншот2 Другой мир / Underworld (2003) [Extended Cut] BDRip 1080p [HEVC] 10 bit от Cthulhu
Загружается...
Cкриншот3 Другой мир / Underworld (2003) [Extended Cut] BDRip 1080p [HEVC] 10 bit от Cthulhu
Загружается...
Cкриншот4 Другой мир / Underworld (2003) [Extended Cut] BDRip 1080p [HEVC] 10 bit от Cthulhu
Загружается...
Сэмпл
3. Другой мир 2: Эволюция / Underworld: Evolution (2006) [Open matte] BDRip 1080p [HEVC] 10 bit от Cthulhu
HEVC
10 bit
Обложка Другой мир 2: Эволюция / Underworld: Evolution (2006) [Open matte] BDRip 1080p [HEVC] 10 bit от Cthulhu Год: 2006
Страна: США
Студия: Screen Gems, Lakeshore Entertainment
Жанр: Ужасы, Фантастика, Фэнтези, Боевик
Продолжительность: 01:46:22

Режиссер: Лен Уайзман
В ролях: Кейт Бекинсейл, Скотт Спидман, Тони Кёрран, Дерек Джекоби, Билл Найи, Стивен Макинтош, Шэйн Бролли, Брайан Стил, Зита Гёрёг, Скотт МакЭлрой, Джон Манн, Майкл Шин

Описание: В зловещем ночном мире, скрытом от взора простых смертных, не утихает беспощадная борьба между двумя кланами властителей мрака – вампирами и оборотнями. Настала пора узнать об истоках вековой вражды, ставшей для вампира-воительницы Селин и Майкла, полуоборотня–получеловека, проклятьем и смыслом существования. Сражаясь с могущественными врагами из обоих кланов, древними магистрами смерти, они познают кровавую интригу и запретную любовь, чтобы в сумраке ночи раскрыть тайну своего происхождения и своего наследия. Их ждет великая битва, которая покончит с вечным противостоянием – последняя схватка ради окончания всех войн, в которой бессмертные должны понести кару и расплатиться за свои злодеяния…


7.01252664
6.7
173332


Формат: MKV
Видео: 1920x1080, 7587 Kbps
Аудио1: DTS, 6 ch, 768 Kbps - Русский, Дублированный (Лицензия)
Аудио2: AC3, 6 ch, 448 Kbps - Русский, Многоголосый (Киномания)
Аудио3: AC3, 6 ch, 448 Kbps - Русский, Одноголосый (Гаврилов)
Аудио4: AC3, 6 ch, 448 Kbps - Русский, Одноголосый (Королев)
Аудио5: AC3, 6 ch, 448 Kbps - Оригинал
Субтитры: Русские, английские

Медиаинфо
General
Unique ID : 173854884732151867357345511857660504047 (0x82CB3B9BF34D667FB3411B3FF2DE27EF)
Complete name : F:HEVCUnderworld AnthologyUnderworld. Evolution (2006) BDRip 1080p [HEVC] Open Matte 10Bit_Cthulhu.mkv
Format : Matroska
Format version : Version 4 / Version 2
File size : 7.53 GiB
Duration : 1 h 46 min
Overall bit rate : 10.1 Mb/s
Movie name : Underworld. Evolution (2006)_rip_by_Cthulhu
Encoded date : UTC 2018-08-03 15:45:37
Writing application : mkvmerge v18.0.0 ('Apricity') 64-bit
Writing library : libebml v1.3.5 + libmatroska v1.4.8
Cover : Yes
Attachments : cover2.jpg

Video
ID : 1
Format : HEVC
Format/Info : High Efficiency Video Coding
Format profile : Main 10@L4.1@High
Codec ID : V_MPEGH/ISO/HEVC
Duration : 1 h 46 min
Bit rate : 7 587 kb/s
Width : 1 920 pixels
Height : 1 080 pixels
Display aspect ratio : 16:9
Frame rate mode : Constant
Frame rate : 23.976 (24000/1001) FPS
Color space : YUV
Chroma subsampling : 4:2:0
Bit depth : 10 bits
Bits/(Pixel*Frame) : 0.153
Stream size : 5.64 GiB (75%)
Writing library : x265 2.8+49-5d34bbf671f7:[Windows][GCC 8.1.1][64 bit] 10bit
Encoding settings : cpuid=1049583 / frame-threads=4 / numa-pools=4 / wpp / no-pmode / no-pme / no-psnr / no-ssim / log-level=2 / input-csp=1 / input-res=1920x1080 / interlace=0 / total-frames=153024 / level-idc=41 / high-tier=1 / uhd-bd=0 / ref=5 / no-allow-non-conformance / no-repeat-headers / annexb / no-aud / no-hrd / info / hash=0 / no-temporal-layers / open-gop / min-keyint=23 / keyint=240 / gop-lookahead=0 / bframes=8 / b-adapt=2 / b-pyramid / bframe-bias=0 / rc-lookahead=40 / lookahead-slices=4 / scenecut=40 / radl=0 / no-intra-refresh / ctu=64 / min-cu-size=8 / rect / amp / max-tu-size=32 / tu-inter-depth=3 / tu-intra-depth=3 / limit-tu=4 / rdoq-level=1 / dynamic-rd=0.00 / no-ssim-rd / signhide / no-tskip / nr-intra=0 / nr-inter=0 / no-constrained-intra / no-strong-intra-smoothing / max-merge=3 / limit-refs=2 / limit-modes / me=3 / subme=7 / merange=57 / temporal-mvp / weightp / weightb / no-analyze-src-pics / deblock=-3:-3 / no-sao / no-sao-non-deblock / rd=4 / no-early-skip / rskip / no-fast-intra / no-tskip-fast / no-cu-lossless / no-b-intra / no-splitrd-skip / rdpenalty=0 / psy-rd=2.00 / psy-rdoq=1.00 / no-rd-refine / no-lossless / cbqpoffs=0 / crqpoffs=0 / rc=crf / crf=18.0 / qcomp=0.60 / qpstep=4 / stats-write=0 / stats-read=0 / vbv-maxrate=50000 / vbv-bufsize=50000 / vbv-init=0.9 / crf-max=0.0 / crf-min=0.0 / ipratio=1.40 / pbratio=1.30 / aq-mode=1 / aq-strength=1.00 / cutree / zone-count=0 / no-strict-cbr / qg-size=32 / no-rc-grain / qpmax=69 / qpmin=0 / no-const-vbv / sar=1 / overscan=0 / videoformat=5 / range=0 / colorprim=1 / transfer=1 / colormatrix=1 / chromaloc=0 / display-window=0 / max-cll=0,0 / min-luma=0 / max-luma=1023 / log2-max-poc-lsb=8 / vui-timing-info / vui-hrd-info / slices=1 / no-opt-qp-pps / no-opt-ref-list-length-pps / no-multi-pass-opt-rps / scenecut-bias=0.05 / no-opt-cu-delta-qp / no-aq-motion / no-hdr / no-hdr-opt / no-dhdr10-opt / no-idr-recovery-sei / analysis-reuse-level=5 / scale-factor=0 / refine-intra=0 / refine-inter=0 / refine-mv=0 / no-limit-sao / ctu-info=0 / no-lowpass-dct / refine-mv-type=0 / copy-pic=1 / max-ausize-factor=1.0 / no-dynamic-refine / no-single-sei
Language : English
Default : Yes
Forced : No
Color range : Limited
Color primaries : BT.709
Transfer characteristics : BT.709
Matrix coefficients : BT.709

Audio #1
ID : 2
Format : DTS
Format/Info : Digital Theater Systems
Codec ID : A_DTS
Duration : 1 h 46 min
Bit rate mode : Constant
Bit rate : 755 kb/s
Channel(s) : 6 channels
Channel positions : Front: L C R, Side: L R, LFE
Sampling rate : 48.0 kHz
Frame rate : 93.750 FPS (512 SPF)
Bit depth : 24 bits
Compression mode : Lossy
Stream size : 574 MiB (7%)
Title : Дубляж Blu-ray CEE
Language : Russian
Default : Yes
Forced : No

Audio #2
ID : 3
Format : AC-3
Format/Info : Audio Coding 3
Codec ID : A_AC3
Duration : 1 h 46 min
Bit rate mode : Constant
Bit rate : 448 kb/s
Channel(s) : 6 channels
Channel positions : Front: L C R, Side: L R, LFE
Sampling rate : 48.0 kHz
Frame rate : 31.250 FPS (1536 SPF)
Bit depth : 16 bits
Compression mode : Lossy
Stream size : 341 MiB (4%)
Title : MVO Киномания
Language : Russian
Service kind : Complete Main
Default : No
Forced : No

Audio #3
ID : 4
Format : AC-3
Format/Info : Audio Coding 3
Codec ID : A_AC3
Duration : 1 h 46 min
Bit rate mode : Constant
Bit rate : 448 kb/s
Channel(s) : 6 channels
Channel positions : Front: L C R, Side: L R, LFE
Sampling rate : 48.0 kHz
Frame rate : 31.250 FPS (1536 SPF)
Bit depth : 16 bits
Compression mode : Lossy
Stream size : 341 MiB (4%)
Title : AVO Гаврилов
Language : Russian
Service kind : Complete Main
Default : No
Forced : No

Audio #4
ID : 5
Format : AC-3
Format/Info : Audio Coding 3
Codec ID : A_AC3
Duration : 1 h 46 min
Bit rate mode : Constant
Bit rate : 448 kb/s
Channel(s) : 6 channels
Channel positions : Front: L C R, Side: L R, LFE
Sampling rate : 48.0 kHz
Frame rate : 31.250 FPS (1536 SPF)
Bit depth : 16 bits
Compression mode : Lossy
Stream size : 341 MiB (4%)
Title : AVO Королев
Language : Russian
Service kind : Complete Main
Default : No
Forced : No

Audio #5
ID : 6
Format : AC-3
Format/Info : Audio Coding 3
Codec ID : A_AC3
Duration : 1 h 46 min
Bit rate mode : Constant
Bit rate : 448 kb/s
Channel(s) : 6 channels
Channel positions : Front: L C R, Side: L R, LFE
Sampling rate : 48.0 kHz
Frame rate : 31.250 FPS (1536 SPF)
Bit depth : 16 bits
Compression mode : Lossy
Stream size : 341 MiB (4%)
Language : English
Service kind : Complete Main
Default : No
Forced : No

Text #1
ID : 7
Format : UTF-8
Codec ID : S_TEXT/UTF8
Codec ID/Info : UTF-8 Plain Text
Duration : 1 h 39 min
Bit rate : 44 b/s
Count of elements : 596
Stream size : 32.2 KiB (0%)
Title : Full - R5
Language : Russian
Default : No
Forced : No

Text #2
ID : 8
Format : UTF-8
Codec ID : S_TEXT/UTF8
Codec ID/Info : UTF-8 Plain Text
Duration : 1 h 36 min
Bit rate : 20 b/s
Count of elements : 421
Stream size : 14.5 KiB (0%)
Title : Full
Language : English
Default : No
Forced : No

Menu
00:00:00.000 : :Start
00:09:46.707 : :The Last Hope
00:12:21.321 : :Respect the Elders
00:15:38.936 : :No Going Back
00:17:18.326 : :Carving a New Course
00:23:12.387 : :Can't Bear the Hunger
00:29:31.601 : :Road Rage Reunion
00:33:48.441 : :A Burning Need
00:38:58.208 : :Leaving No Trace
00:41:18.681 : :Relic of Memory
00:43:32.106 : :The Exile's Snare
00:47:21.335 : :Time for Answers
00:49:12.155 : :Truth and Legend
00:56:44.148 : :Impailing Interrogation
01:00:00.510 : :Father of the War
01:03:09.114 : :Bleeding the Map
01:05:49.150 : :Pain of Helplessness
01:07:14.902 : :Divine Aspiration
01:10:32.265 : :The Future Begins
01:13:43.375 : :The Past Fades Away
01:15:58.216 : :A Forgotton Chamber
01:17:17.255 : :A Submerged Entry
01:20:18.185 : :Brothers Reunited
01:21:26.502 : :"We're Too Late."
01:25:30.081 : :Explosive Encounter
01:28:43.480 : :Outnumbered
01:32:11.230 : :A Monstrous Duel
01:35:54.121 : :Light of New Hope
Cкриншот1 Другой мир 2: Эволюция / Underworld: Evolution (2006) [Open matte] BDRip 1080p [HEVC] 10 bit от Cthulhu
Загружается...
Cкриншот2 Другой мир 2: Эволюция / Underworld: Evolution (2006) [Open matte] BDRip 1080p [HEVC] 10 bit от Cthulhu
Загружается...
Cкриншот3 Другой мир 2: Эволюция / Underworld: Evolution (2006) [Open matte] BDRip 1080p [HEVC] 10 bit от Cthulhu
Загружается...
Cкриншот4 Другой мир 2: Эволюция / Underworld: Evolution (2006) [Open matte] BDRip 1080p [HEVC] 10 bit от Cthulhu
Загружается...
Сэмпл
4. Другой мир: Восстание ликанов / Underworld: Rise of the Lycans (2009) BDRip 1080p [HEVC] 10 bit от Cthulhu
HEVC
10 bit
Обложка Другой мир: Восстание ликанов / Underworld: Rise of the Lycans (2009) BDRip 1080p [HEVC] 10 bit от Cthulhu Год: 2009
Страна: США, Новая Зеландия
Студия: Sketch Films, Lakeshore Entertainment, Screen Gems
Жанр: Ужасы, Фантастика, Фэнтези, Боевик
Продолжительность: 01:32:28

Режиссер: Патрик Татопулос
В ролях: Майкл Шин, Билл Найи, Рона Митра, Стивен Макинтош, Кевин Гревье, Дэвид Эстон, Джеральдин Брофи, Лейтон Кардно, Алекс Кэрролл, Элизабет Хоторн, Джейсон Худ, Марк Митчинсон

Описание: История, прослеживающая происхождение вековой кровной мести, между аристократическими вампирами, известными как Торговцы смертью и их рабами. Молодой ликан по имени Люциан — мощный лидер, который сплачивает оборотней, чтобы выступить против Виктора, жестокого короля вампиров, который поработил их. К Люциану присоединяется Соня, и помогает ему в его борьбе против смертоносной армии торговцев смертью и борьбе за свободу ликанов.


6.83744331
6.6
135919


Формат: MKV
Видео: 1920x800, 7629 Kbps
Аудио1: DTS, 6 ch, 768 Kbps - Русский, Дублированный (Лицензия)
Аудио2: AC3, 6 ch, 448 Kbps - Русский, Одноголосый (Гаврилов)
Аудио3: AC3, 6 ch, 448 Kbps - Русский, Одноголосый (Королев)
Аудио4: AC3, 6 ch, 448 Kbps - Оригинал
Субтитры: Русские, английские

Медиаинфо
General
Unique ID : 214618601789349730449489696743886340590 (0xA1760A07C1CCA1A6820D9C0D42A6C1EE)
Complete name : F:HEVCUnderworld AnthologyUnderworld. Rise of the Lycans (2009) BDRip 1080p [HEVC] 10Bit_Cthulhu.mkv
Format : Matroska
Format version : Version 4 / Version 2
File size : 6.29 GiB
Duration : 1 h 32 min
Overall bit rate : 9 745 kb/s
Movie name : Underworld: Rise of the Lycans (2009)_rip_by_Cthulhu
Encoded date : UTC 2018-07-28 11:52:33
Writing application : mkvmerge v18.0.0 ('Apricity') 64-bit
Writing library : libebml v1.3.5 + libmatroska v1.4.8
Cover : Yes
Attachments : cover3.jpg

Video
ID : 1
Format : HEVC
Format/Info : High Efficiency Video Coding
Format profile : Main 10@L4.1@High
Codec ID : V_MPEGH/ISO/HEVC
Duration : 1 h 32 min
Bit rate : 7 629 kb/s
Width : 1 920 pixels
Height : 800 pixels
Display aspect ratio : 2.40:1
Frame rate mode : Constant
Frame rate : 23.976 (24000/1001) FPS
Color space : YUV
Chroma subsampling : 4:2:0
Bit depth : 10 bits
Bits/(Pixel*Frame) : 0.207
Stream size : 4.93 GiB (78%)
Writing library : x265 2.7+340-aa9102400f24:[Windows][GCC 8.0.1][64 bit] 10bit
Encoding settings : cpuid=1049583 / frame-threads=4 / numa-pools=4 / wpp / no-pmode / no-pme / no-psnr / no-ssim / log-level=2 / input-csp=1 / input-res=1920x800 / interlace=0 / total-frames=133033 / level-idc=41 / high-tier=1 / uhd-bd=0 / ref=5 / no-allow-non-conformance / no-repeat-headers / annexb / no-aud / no-hrd / info / hash=0 / no-temporal-layers / open-gop / min-keyint=23 / keyint=240 / gop-lookahead=0 / bframes=10 / b-adapt=2 / b-pyramid / bframe-bias=0 / rc-lookahead=40 / lookahead-slices=4 / scenecut=40 / radl=0 / no-intra-refresh / ctu=64 / min-cu-size=8 / rect / amp / max-tu-size=32 / tu-inter-depth=3 / tu-intra-depth=3 / limit-tu=4 / rdoq-level=1 / dynamic-rd=0.00 / no-ssim-rd / signhide / no-tskip / nr-intra=0 / nr-inter=0 / no-constrained-intra / no-strong-intra-smoothing / max-merge=3 / limit-refs=2 / limit-modes / me=3 / subme=7 / merange=57 / temporal-mvp / weightp / weightb / no-analyze-src-pics / deblock=-3:-3 / no-sao / no-sao-non-deblock / rd=4 / no-early-skip / rskip / no-fast-intra / no-tskip-fast / no-cu-lossless / no-b-intra / no-splitrd-skip / rdpenalty=0 / psy-rd=2.00 / psy-rdoq=1.00 / no-rd-refine / no-lossless / cbqpoffs=0 / crqpoffs=0 / rc=crf / crf=18.0 / qcomp=0.60 / qpstep=4 / stats-write=0 / stats-read=0 / vbv-maxrate=50000 / vbv-bufsize=50000 / vbv-init=0.9 / crf-max=0.0 / crf-min=0.0 / ipratio=1.40 / pbratio=1.30 / aq-mode=1 / aq-strength=1.00 / cutree / zone-count=0 / no-strict-cbr / qg-size=32 / no-rc-grain / qpmax=69 / qpmin=0 / no-const-vbv / sar=1 / overscan=0 / videoformat=5 / range=0 / colorprim=1 / transfer=1 / colormatrix=1 / chromaloc=0 / display-window=0 / max-cll=0,0 / min-luma=0 / max-luma=1023 / log2-max-poc-lsb=8 / vui-timing-info / vui-hrd-info / slices=1 / no-opt-qp-pps / no-opt-ref-list-length-pps / no-multi-pass-opt-rps / scenecut-bias=0.05 / no-opt-cu-delta-qp / no-aq-motion / no-hdr / no-hdr-opt / no-dhdr10-opt / no-idr-recovery-sei / analysis-reuse-level=5 / scale-factor=0 / refine-intra=0 / refine-inter=0 / refine-mv=0 / no-limit-sao / ctu-info=0 / no-lowpass-dct / refine-mv-type=0 / copy-pic=1 / max-ausize-factor=1.0 / no-dynamic-refine / no-single-sei
Language : English
Default : Yes
Forced : No
Color range : Limited
Color primaries : BT.709
Transfer characteristics : BT.709
Matrix coefficients : BT.709

Audio #1
ID : 2
Format : DTS
Format/Info : Digital Theater Systems
Codec ID : A_DTS
Duration : 1 h 32 min
Bit rate mode : Constant
Bit rate : 768 kb/s
Channel(s) : 6 channels
Channel positions : Front: L C R, Side: L R, LFE
Sampling rate : 48.0 kHz
Frame rate : 93.750 FPS (512 SPF)
Bit depth : 16 bits
Compression mode : Lossy
Stream size : 508 MiB (8%)
Title : Дубляж
Language : Russian
Default : Yes
Forced : No

Audio #2
ID : 3
Format : AC-3
Format/Info : Audio Coding 3
Codec ID : A_AC3
Duration : 1 h 32 min
Bit rate mode : Constant
Bit rate : 448 kb/s
Channel(s) : 6 channels
Channel positions : Front: L C R, Side: L R, LFE
Sampling rate : 48.0 kHz
Frame rate : 31.250 FPS (1536 SPF)
Bit depth : 16 bits
Compression mode : Lossy
Stream size : 296 MiB (5%)
Title : AVO Гаврилов
Language : Russian
Service kind : Complete Main
Default : No
Forced : No

Audio #3
ID : 4
Format : AC-3
Format/Info : Audio Coding 3
Codec ID : A_AC3
Duration : 1 h 32 min
Bit rate mode : Constant
Bit rate : 448 kb/s
Channel(s) : 6 channels
Channel positions : Front: L C R, Side: L R, LFE
Sampling rate : 48.0 kHz
Frame rate : 31.250 FPS (1536 SPF)
Bit depth : 16 bits
Compression mode : Lossy
Stream size : 296 MiB (5%)
Title : AVO Королев
Language : Russian
Service kind : Complete Main
Default : No
Forced : No

Audio #4
ID : 5
Format : AC-3
Format/Info : Audio Coding 3
Codec ID : A_AC3
Duration : 1 h 32 min
Bit rate mode : Constant
Bit rate : 448 kb/s
Channel(s) : 6 channels
Channel positions : Front: L C R, Side: L R, LFE
Sampling rate : 48.0 kHz
Frame rate : 31.250 FPS (1536 SPF)
Bit depth : 16 bits
Compression mode : Lossy
Stream size : 296 MiB (5%)
Language : English
Service kind : Complete Main
Default : No
Forced : No

Text #1
ID : 6
Format : UTF-8
Codec ID : S_TEXT/UTF8
Codec ID/Info : UTF-8 Plain Text
Duration : 1 h 24 min
Bit rate : 51 b/s
Count of elements : 663
Stream size : 31.5 KiB (0%)
Language : Russian
Default : No
Forced : No

Text #2
ID : 7
Format : UTF-8
Codec ID : S_TEXT/UTF8
Codec ID/Info : UTF-8 Plain Text
Duration : 1 h 22 min
Bit rate : 33 b/s
Count of elements : 654
Stream size : 20.3 KiB (0%)
Language : English
Default : No
Forced : No

Menu
00:00:00.000 : en:Chapter 1
00:00:50.550 : en:Chapter 2
00:06:13.122 : en:Chapter 3
00:06:19.879 : en:Chapter 4
00:11:42.785 : en:Chapter 5
00:16:03.462 : en:Chapter 6
00:16:44.628 : en:Chapter 7
00:19:38.010 : en:Chapter 8
00:22:37.564 : en:Chapter 9
00:24:33.054 : en:Chapter 10
00:27:36.446 : en:Chapter 11
00:28:44.889 : en:Chapter 12
00:30:28.493 : en:Chapter 13
00:31:28.678 : en:Chapter 14
00:35:42.265 : en:Chapter 15
00:36:33.149 : en:Chapter 16
00:39:04.925 : en:Chapter 17
00:40:17.415 : en:Chapter 18
00:41:41.498 : en:Chapter 19
00:46:25.824 : en:Chapter 20
00:46:28.869 : en:Chapter 21
00:50:44.166 : en:Chapter 22
00:50:54.593 : en:Chapter 23
00:52:28.979 : en:Chapter 24
00:55:08.221 : en:Chapter 25
00:56:09.491 : en:Chapter 26
01:00:39.302 : en:Chapter 27
01:00:46.184 : en:Chapter 28
01:04:21.065 : en:Chapter 29
01:07:13.279 : en:Chapter 30
01:11:15.437 : en:Chapter 31
01:13:29.321 : en:Chapter 32
01:16:18.907 : en:Chapter 33
01:16:38.844 : en:Chapter 34
01:18:03.887 : en:Chapter 35
01:22:33.156 : en:Chapter 36
Cкриншот1 Другой мир: Восстание ликанов / Underworld: Rise of the Lycans (2009) BDRip 1080p [HEVC] 10 bit от Cthulhu
Загружается...
Cкриншот2 Другой мир: Восстание ликанов / Underworld: Rise of the Lycans (2009) BDRip 1080p [HEVC] 10 bit от Cthulhu
Загружается...
Cкриншот3 Другой мир: Восстание ликанов / Underworld: Rise of the Lycans (2009) BDRip 1080p [HEVC] 10 bit от Cthulhu
Загружается...
Cкриншот4 Другой мир: Восстание ликанов / Underworld: Rise of the Lycans (2009) BDRip 1080p [HEVC] 10 bit от Cthulhu
Загружается...
Сэмпл
5. Другой мир: Пробуждение / Underworld: Awakening (2012) BDRip 1080p [HEVC] 10 bit от Cthulhu
HEVC
10 bit
Обложка Другой мир: Пробуждение / Underworld: Awakening (2012) BDRip 1080p [HEVC] 10 bit от Cthulhu Год: 2012
Страна: США
Студия: Lakeshore Entertainment
Жанр: Ужасы, Фантастика, Фэнтези, Боевик
Продолжительность: 01:28:34

Режиссер: Манс Марлинд, Бьёрн Стейн
В ролях: Кейт Бекинсейл, Стивен Ри, Майкл Или, Тео Джеймс, Индия Айсли, Чарльз Дэнс, Сандрин Холт, Кристен Холден-Рид, Джейкоб Блэр, Адам Рейд, Кэтлин Адамс, Роберт Лоуренсон, Ли Мадждуб, Джон Иннес, Тайлер МакКлендон

Описание: Человечество обнаружило существование вампиров и ликанов и начинает войну, чтобы уничтожить эти расы. Селин прорывается к пирсу, где её ждет Майкл для того чтобы вместе отплыть на корабле и скрыться ото всех. Но у пирса их ждет засада. Взрыв гранаты разбрасывает Селин и Майкла в разные стороны. 12 лет спустя Селин просыпается от криогенного сна в лаборатории и узнает о существовании родной дочери Евы — гибрида вампира и ликана. Теперь Селин нужно защитить Еву от ликанов, которые намерены использовать ее, чтобы устранить у своего вида уязвимость от серебра…


6.3345624
6.4
132829


Формат: MKV
Видео: 1920x800, 5125 Kbps
Аудио1: AC3, 6 ch, 640 Kbps - Русский, Дублированный (Лицензия)
Аудио2: AC3, 6 ch, 448 Kbps - Русский, Одноголосый (Гаврилов)
Аудио3: AC3, 6 ch, 640 Kbps - Оригинал
Субтитры: Русские, английские

Медиаинфо
General
Unique ID : 230326856112842299911064827161682972313 (0xAD4756C35BB1F5DC8AAAEDFC83A50E99)
Complete name : F:HEVCUnderworld AnthologyUnderworld. Awakening (2012) BDRip 1080p [HEVC] 10Bit_Cthulhu.mkv
Format : Matroska
Format version : Version 4 / Version 2
File size : 4.24 GiB
Duration : 1 h 28 min
Overall bit rate : 6 856 kb/s
Movie name : Underworld Awakening (2012)_rip_by_Cthulhu
Encoded date : UTC 2018-07-28 12:41:35
Writing application : mkvmerge v18.0.0 ('Apricity') 64-bit
Writing library : libebml v1.3.5 + libmatroska v1.4.8
Cover : Yes
Attachments : cover4.jpg

Video
ID : 1
Format : HEVC
Format/Info : High Efficiency Video Coding
Format profile : Main 10@L4.1@High
Codec ID : V_MPEGH/ISO/HEVC
Duration : 1 h 28 min
Bit rate : 5 125 kb/s
Width : 1 920 pixels
Height : 800 pixels
Display aspect ratio : 2.40:1
Frame rate mode : Constant
Frame rate : 23.976 (24000/1001) FPS
Color space : YUV
Chroma subsampling : 4:2:0
Bit depth : 10 bits
Bits/(Pixel*Frame) : 0.139
Stream size : 3.17 GiB (75%)
Writing library : x265 2.7+340-aa9102400f24:[Windows][GCC 8.0.1][64 bit] 10bit
Encoding settings : cpuid=1049583 / frame-threads=4 / numa-pools=4 / wpp / no-pmode / no-pme / no-psnr / no-ssim / log-level=2 / input-csp=1 / input-res=1920x800 / interlace=0 / total-frames=127425 / level-idc=41 / high-tier=1 / uhd-bd=0 / ref=5 / no-allow-non-conformance / no-repeat-headers / annexb / no-aud / no-hrd / info / hash=0 / no-temporal-layers / open-gop / min-keyint=23 / keyint=240 / gop-lookahead=0 / bframes=8 / b-adapt=2 / b-pyramid / bframe-bias=0 / rc-lookahead=40 / lookahead-slices=4 / scenecut=40 / radl=0 / no-intra-refresh / ctu=64 / min-cu-size=8 / rect / amp / max-tu-size=32 / tu-inter-depth=3 / tu-intra-depth=3 / limit-tu=4 / rdoq-level=1 / dynamic-rd=0.00 / no-ssim-rd / signhide / no-tskip / nr-intra=0 / nr-inter=0 / no-constrained-intra / no-strong-intra-smoothing / max-merge=3 / limit-refs=2 / limit-modes / me=3 / subme=7 / merange=57 / temporal-mvp / weightp / weightb / no-analyze-src-pics / deblock=-3:-3 / no-sao / no-sao-non-deblock / rd=4 / no-early-skip / rskip / no-fast-intra / no-tskip-fast / no-cu-lossless / no-b-intra / no-splitrd-skip / rdpenalty=0 / psy-rd=2.00 / psy-rdoq=1.00 / no-rd-refine / no-lossless / cbqpoffs=0 / crqpoffs=0 / rc=crf / crf=18.0 / qcomp=0.60 / qpstep=4 / stats-write=0 / stats-read=0 / vbv-maxrate=50000 / vbv-bufsize=50000 / vbv-init=0.9 / crf-max=0.0 / crf-min=0.0 / ipratio=1.40 / pbratio=1.30 / aq-mode=1 / aq-strength=1.00 / cutree / zone-count=0 / no-strict-cbr / qg-size=32 / no-rc-grain / qpmax=69 / qpmin=0 / no-const-vbv / sar=1 / overscan=0 / videoformat=5 / range=0 / colorprim=1 / transfer=1 / colormatrix=1 / chromaloc=0 / display-window=0 / max-cll=0,0 / min-luma=0 / max-luma=1023 / log2-max-poc-lsb=8 / vui-timing-info / vui-hrd-info / slices=1 / no-opt-qp-pps / no-opt-ref-list-length-pps / no-multi-pass-opt-rps / scenecut-bias=0.05 / no-opt-cu-delta-qp / no-aq-motion / no-hdr / no-hdr-opt / no-dhdr10-opt / no-idr-recovery-sei / analysis-reuse-level=5 / scale-factor=0 / refine-intra=0 / refine-inter=0 / refine-mv=0 / no-limit-sao / ctu-info=0 / no-lowpass-dct / refine-mv-type=0 / copy-pic=1 / max-ausize-factor=1.0 / no-dynamic-refine / no-single-sei
Language : English
Default : Yes
Forced : No
Color range : Limited
Color primaries : BT.709
Transfer characteristics : BT.709
Matrix coefficients : BT.709

Audio #1
ID : 2
Format : AC-3
Format/Info : Audio Coding 3
Codec ID : A_AC3
Duration : 1 h 28 min
Bit rate mode : Constant
Bit rate : 640 kb/s
Channel(s) : 6 channels
Channel positions : Front: L C R, Side: L R, LFE
Sampling rate : 48.0 kHz
Frame rate : 31.250 FPS (1536 SPF)
Bit depth : 16 bits
Compression mode : Lossy
Stream size : 405 MiB (9%)
Title : Rus DUB, Blu-ray CEE
Language : Russian
Service kind : Complete Main
Default : Yes
Forced : No

Audio #2
ID : 3
Format : AC-3
Format/Info : Audio Coding 3
Codec ID : A_AC3
Duration : 1 h 28 min
Bit rate mode : Constant
Bit rate : 448 kb/s
Channel(s) : 6 channels
Channel positions : Front: L C R, Side: L R, LFE
Sampling rate : 48.0 kHz
Frame rate : 31.250 FPS (1536 SPF)
Bit depth : 16 bits
Compression mode : Lossy
Stream size : 284 MiB (7%)
Title : AVO Гаврилов
Language : Russian
Service kind : Complete Main
Default : No
Forced : No

Audio #3
ID : 4
Format : AC-3
Format/Info : Audio Coding 3
Codec ID : A_AC3
Duration : 1 h 28 min
Bit rate mode : Constant
Bit rate : 640 kb/s
Channel(s) : 6 channels
Channel positions : Front: L C R, Side: L R, LFE
Sampling rate : 48.0 kHz
Frame rate : 31.250 FPS (1536 SPF)
Bit depth : 16 bits
Compression mode : Lossy
Stream size : 405 MiB (9%)
Language : English
Service kind : Complete Main
Default : No
Forced : No

Text #1
ID : 5
Format : UTF-8
Codec ID : S_TEXT/UTF8
Codec ID/Info : UTF-8 Plain Text
Duration : 1 h 19 min
Bit rate : 53 b/s
Count of elements : 734
Stream size : 30.8 KiB (0%)
Language : Russian
Default : No
Forced : No

Text #2
ID : 6
Format : UTF-8
Codec ID : S_TEXT/UTF8
Codec ID/Info : UTF-8 Plain Text
Duration : 1 h 17 min
Bit rate : 35 b/s
Count of elements : 733
Stream size : 20.3 KiB (0%)
Language : English
Default : No
Forced : No

Menu
00:00:00.000 : en:Chapter 00
00:04:26.057 : en:Chapter 01
00:07:45.339 : en:Chapter 02
00:16:20.187 : en:Chapter 03
00:21:11.812 : en:Chapter 04
00:24:49.988 : en:Chapter 05
00:30:29.827 : en:Chapter 06
00:35:31.754 : en:Chapter 07
00:40:04.944 : en:Chapter 08
00:45:23.929 : en:Chapter 09
00:52:30.730 : en:Chapter 10
00:57:21.562 : en:Chapter 11
01:02:53.936 : en:Chapter 12
01:07:43.726 : en:Chapter 13
01:12:18.500 : en:Chapter 14
01:16:41.429 : en:Chapter 15
Cкриншот1 Другой мир: Пробуждение / Underworld: Awakening (2012) BDRip 1080p [HEVC] 10 bit от Cthulhu
Загружается...
Cкриншот2 Другой мир: Пробуждение / Underworld: Awakening (2012) BDRip 1080p [HEVC] 10 bit от Cthulhu
Загружается...
Cкриншот3 Другой мир: Пробуждение / Underworld: Awakening (2012) BDRip 1080p [HEVC] 10 bit от Cthulhu
Загружается...
Cкриншот4 Другой мир: Пробуждение / Underworld: Awakening (2012) BDRip 1080p [HEVC] 10 bit от Cthulhu
Загружается...
Сэмпл
6. Другой мир: Войны крови / Underworld: Blood Wars (2016) BDRip 1080p [HEVC] 10 bit от Cthulhu
HEVC
10 bit
Обложка Другой мир: Войны крови / Underworld: Blood Wars (2016) BDRip 1080p [HEVC] 10 bit от Cthulhu Год: 2016
Страна: США
Студия: Lakeshore Entertainment, Screen Gems, Sketch Films
Жанр: Ужасы, Фантастика, Фэнтези, Боевик
Продолжительность: 01:31:32

Режиссер: Анна Ферстер
В ролях: Кейт Бекинсейл, Тео Джеймс, Лара Пулвер, Чарльз Дэнс, Тобайас Мензис, Брэдли Джеймс, Алисия Вела-Бэйли, Трент Гарретт, Дэйзи Хэд, Джеймс Фолкнер

Описание: Воительница-вампир Селена вступает в свой последний и решающий бой между оборотнями и кланом вампиров, который предал ее.


5.71619883
5.8
55871


Формат: MKV
Видео: 1920x800, 4911 Kbps
Аудио1: AC3, 6 ch, 640 Kbps - Русский, Дублированный (Лицензия)
Аудио2: AC3, 6 ch, 448 Kbps - Русский, Одноголосый (Гаврилов)
Аудио3: AC3, 6 ch, 448 Kbps - Русский, Одноголосый (Живов)
Аудио4: AC3, 6 ch, 448 Kbps - Русский, Одноголосый (Есарев)
Аудио5: AC3, 6 ch, 640 Kbps - Оригинал
Субтитры: Русские, английские

Медиаинфо
General
Unique ID : 230686441772024123435857042625177439350 (0xAD8C97B474B543F2904868B86CDDCC76)
Complete name : F:HEVCUnderworld AnthologyUnderworld. Blood Wars (2016) BDRip 1080p [HEVC] 10Bit_Cthulhu.mkv
Format : Matroska
Format version : Version 4 / Version 2
File size : 4.82 GiB
Duration : 1 h 31 min
Overall bit rate : 7 538 kb/s
Movie name : Underworld: Blood Wars (2016)_rip_by_Cthulhu
Encoded date : UTC 2018-07-28 11:23:13
Writing application : mkvmerge v18.0.0 ('Apricity') 64-bit
Writing library : libebml v1.3.5 + libmatroska v1.4.8
Cover : Yes
Attachments : cover.jpg

Video
ID : 1
Format : HEVC
Format/Info : High Efficiency Video Coding
Format profile : Main 10@L4.1@High
Codec ID : V_MPEGH/ISO/HEVC
Duration : 1 h 31 min
Bit rate : 4 911 kb/s
Width : 1 920 pixels
Height : 800 pixels
Display aspect ratio : 2.40:1
Frame rate mode : Constant
Frame rate : 23.976 (24000/1001) FPS
Color space : YUV
Chroma subsampling : 4:2:0
Bit depth : 10 bits
Bits/(Pixel*Frame) : 0.133
Stream size : 3.14 GiB (65%)
Writing library : x265 2.7+340-aa9102400f24:[Windows][GCC 8.0.1][64 bit] 10bit
Encoding settings : cpuid=1049583 / frame-threads=4 / numa-pools=4 / wpp / no-pmode / no-pme / no-psnr / no-ssim / log-level=2 / input-csp=1 / input-res=1920x800 / interlace=0 / total-frames=131688 / level-idc=41 / high-tier=1 / uhd-bd=0 / ref=5 / no-allow-non-conformance / no-repeat-headers / annexb / no-aud / no-hrd / info / hash=0 / no-temporal-layers / open-gop / min-keyint=23 / keyint=240 / gop-lookahead=0 / bframes=10 / b-adapt=2 / b-pyramid / bframe-bias=0 / rc-lookahead=40 / lookahead-slices=4 / scenecut=40 / radl=0 / no-intra-refresh / ctu=64 / min-cu-size=8 / rect / amp / max-tu-size=32 / tu-inter-depth=3 / tu-intra-depth=3 / limit-tu=4 / rdoq-level=1 / dynamic-rd=0.00 / no-ssim-rd / signhide / no-tskip / nr-intra=0 / nr-inter=0 / no-constrained-intra / no-strong-intra-smoothing / max-merge=3 / limit-refs=2 / limit-modes / me=3 / subme=7 / merange=57 / temporal-mvp / weightp / weightb / no-analyze-src-pics / deblock=-3:-3 / no-sao / no-sao-non-deblock / rd=4 / no-early-skip / rskip / no-fast-intra / no-tskip-fast / no-cu-lossless / no-b-intra / no-splitrd-skip / rdpenalty=0 / psy-rd=2.00 / psy-rdoq=1.00 / no-rd-refine / no-lossless / cbqpoffs=0 / crqpoffs=0 / rc=crf / crf=18.0 / qcomp=0.60 / qpstep=4 / stats-write=0 / stats-read=0 / vbv-maxrate=50000 / vbv-bufsize=50000 / vbv-init=0.9 / crf-max=0.0 / crf-min=0.0 / ipratio=1.40 / pbratio=1.30 / aq-mode=1 / aq-strength=1.00 / cutree / zone-count=0 / no-strict-cbr / qg-size=32 / no-rc-grain / qpmax=69 / qpmin=0 / no-const-vbv / sar=1 / overscan=0 / videoformat=5 / range=0 / colorprim=1 / transfer=1 / colormatrix=1 / chromaloc=0 / display-window=0 / max-cll=0,0 / min-luma=0 / max-luma=1023 / log2-max-poc-lsb=8 / vui-timing-info / vui-hrd-info / slices=1 / no-opt-qp-pps / no-opt-ref-list-length-pps / no-multi-pass-opt-rps / scenecut-bias=0.05 / no-opt-cu-delta-qp / no-aq-motion / no-hdr / no-hdr-opt / no-dhdr10-opt / no-idr-recovery-sei / analysis-reuse-level=5 / scale-factor=0 / refine-intra=0 / refine-inter=0 / refine-mv=0 / no-limit-sao / ctu-info=0 / no-lowpass-dct / refine-mv-type=0 / copy-pic=1 / max-ausize-factor=1.0 / no-dynamic-refine / no-single-sei
Language : English
Default : Yes
Forced : No
Color range : Limited
Color primaries : BT.709
Transfer characteristics : BT.709
Matrix coefficients : BT.709

Audio #1
ID : 2
Format : AC-3
Format/Info : Audio Coding 3
Codec ID : A_AC3
Duration : 1 h 31 min
Bit rate mode : Constant
Bit rate : 640 kb/s
Channel(s) : 6 channels
Channel positions : Front: L C R, Side: L R, LFE
Sampling rate : 48.0 kHz
Frame rate : 31.250 FPS (1536 SPF)
Bit depth : 16 bits
Compression mode : Lossy
Stream size : 419 MiB (8%)
Title : Rus Dub
Language : Russian
Service kind : Complete Main
Default : Yes
Forced : No

Audio #2
ID : 3
Format : AC-3
Format/Info : Audio Coding 3
Codec ID : A_AC3
Duration : 1 h 31 min
Bit rate mode : Constant
Bit rate : 448 kb/s
Channel(s) : 6 channels
Channel positions : Front: L C R, Side: L R, LFE
Sampling rate : 48.0 kHz
Frame rate : 31.250 FPS (1536 SPF)
Bit depth : 16 bits
Compression mode : Lossy
Stream size : 293 MiB (6%)
Title : AVO А.Гаврилов
Language : Russian
Service kind : Complete Main
Default : No
Forced : No

Audio #3
ID : 4
Format : AC-3
Format/Info : Audio Coding 3
Codec ID : A_AC3
Duration : 1 h 31 min
Bit rate mode : Constant
Bit rate : 448 kb/s
Channel(s) : 6 channels
Channel positions : Front: L C R, Side: L R, LFE
Sampling rate : 48.0 kHz
Frame rate : 31.250 FPS (1536 SPF)
Bit depth : 16 bits
Compression mode : Lossy
Stream size : 293 MiB (6%)
Title : AVO Ю.Живов
Language : Russian
Service kind : Complete Main
Default : No
Forced : No

Audio #4
ID : 5
Format : AC-3
Format/Info : Audio Coding 3
Codec ID : A_AC3
Duration : 1 h 31 min
Bit rate mode : Constant
Bit rate : 448 kb/s
Channel(s) : 6 channels
Channel positions : Front: L C R, Side: L R, LFE
Sampling rate : 48.0 kHz
Frame rate : 31.250 FPS (1536 SPF)
Bit depth : 16 bits
Compression mode : Lossy
Stream size : 293 MiB (6%)
Title : AVO Д.Есарев
Language : Russian
Service kind : Complete Main
Default : No
Forced : No

Audio #5
ID : 6
Format : AC-3
Format/Info : Audio Coding 3
Codec ID : A_AC3
Duration : 1 h 31 min
Bit rate mode : Constant
Bit rate : 640 kb/s
Channel(s) : 6 channels
Channel positions : Front: L C R, Side: L R, LFE
Sampling rate : 48.0 kHz
Frame rate : 31.250 FPS (1536 SPF)
Bit depth : 16 bits
Compression mode : Lossy
Stream size : 419 MiB (8%)
Language : English
Service kind : Complete Main
Default : No
Forced : No

Text #1
ID : 7
Format : UTF-8
Codec ID : S_TEXT/UTF8
Codec ID/Info : UTF-8 Plain Text
Duration : 1 h 30 min
Bit rate : 71 b/s
Count of elements : 837
Stream size : 47.3 KiB (0%)
Language : Russian
Default : No
Forced : No

Text #2
ID : 8
Format : UTF-8
Codec ID : S_TEXT/UTF8
Codec ID/Info : UTF-8 Plain Text
Duration : 1 h 30 min
Bit rate : 42 b/s
Count of elements : 820
Stream size : 27.9 KiB (0%)
Language : English
Default : No
Forced : No

Menu
00:00:00.000 : en:Chapter 1
00:04:30.478 : en:Chapter 2
00:09:25.314 : en:Chapter 3
00:13:59.964 : en:Chapter 4
00:18:56.009 : en:Chapter 5
00:24:27.090 : en:Chapter 6
00:31:15.957 : en:Chapter 7
00:36:26.809 : en:Chapter 8
00:42:17.034 : en:Chapter 9
00:47:37.646 : en:Chapter 10
00:52:22.180 : en:Chapter 11
00:58:59.327 : en:Chapter 12
01:04:31.659 : en:Chapter 13
01:08:52.128 : en:Chapter 14
01:13:47.131 : en:Chapter 15
01:20:08.512 : en:Chapter 16
Cкриншот1 Другой мир: Войны крови / Underworld: Blood Wars (2016) BDRip 1080p [HEVC] 10 bit от Cthulhu
Загружается...
Cкриншот2 Другой мир: Войны крови / Underworld: Blood Wars (2016) BDRip 1080p [HEVC] 10 bit от Cthulhu
Загружается...
Cкриншот3 Другой мир: Войны крови / Underworld: Blood Wars (2016) BDRip 1080p [HEVC] 10 bit от Cthulhu
Загружается...
Cкриншот4 Другой мир: Войны крови / Underworld: Blood Wars (2016) BDRip 1080p [HEVC] 10 bit от Cthulhu
Загружается...
Сэмпл

Ссылки для скачивания доступны только зарегистрированным/авторизованным пользователям!

10.08.2018  19:57:01
8
2014
5
1
37.13 ГБ

Добавление нового комментария

Добавление комментариев доступно только зарегистрированным/авторизованным пользователям.
Аватар Sinteriya
  Sinteriya  10.08.2018  22:03:25
Cthulhu писал(а):
да , низкий битрейт. да 12 весит меньше чем 10, 10 весит меньше чем 8. НО эта разница мизерная и ее просто не замечаешь.
Спасибо за ответ!
Аватар Cthulhu
  Cthulhu  10.08.2018  21:37:42
да , низкий битрейт. да 12 весит меньше чем 10, 10 весит меньше чем 8. НО эта разница мизерная и ее просто не замечаешь.
Аватар Sinteriya
  Sinteriya  10.08.2018  21:32:20
Cthulhu писал(а):
это именно low-qualuty. Но это от другого релиза затесалось. Глюк
Это означает низкий битрейт? Ничего вменяемого по данному вопросу не гуглится!
Так же спрашиваю в чате, 12бит весит меньше чем 10бит, или 10бит меньше чем 8бит - игнор!
Аватар Cthulhu
  Cthulhu  10.08.2018  21:28:39
Sinteriya писал(а):
Когда висели недооформленные 2 релиза, на 1м было LQ написано! Но мне просто интересно, что значит этот LQ!?
это именно low-qualuty. Но это от другого релиза затесалось. Глюк
Аватар Sinteriya
  Sinteriya  10.08.2018  21:23:11
Cthulhu писал(а):
и с чего вы это взяли? Что LQ?
Когда висели недооформленные 2 релиза, на 1м было LQ написано! Но мне просто интересно, что значит этот LQ!?
Аватар Cthulhu
  Cthulhu  10.08.2018  20:12:26
Sinteriya писал(а):
это LQ( low-qualuty)? И на чем отражается это, если это LQ?
и с чего вы это взяли? Что LQ?
Аватар Admin
  Admin  10.08.2018  20:09:12
Дождитесь полного оформления. Будет вся инфа.
Аватар Sinteriya
  Sinteriya  10.08.2018  20:08:05
это LQ( low-qualuty)? И на чем отражается это, если это LQ?